Mersal (2017) Tamil – BD50 Untouched – 1080p HD AVC – DD 7.1 – DTS HDMA | G- Drive | 38 GB |

General
ID : 0 (0x0)
Complete name :Mersal (2017) Tamil – [BD50 Untouched – 1080p HD AVC – DD 7.1 – DTS HDMA]\BDMV\STREAM\00000.m2ts
Format : BDAV
Format/Info : Blu-ray Video
File size : 38.6 GiB
Duration : 2 h 41 min
Overall bit rate mode : Variable
Overall bit rate : 34.2 Mb/s
Maximum Overall bit rate : 48.0 Mb/s

Video
ID : 4113 (0x1011)
Menu ID : 1 (0x1)
Format : AVC
Format/Info : Advanced Video Codec
Format profile : [email protected]
Format settings : CABAC / 3 Ref Frames
Format settings, CABAC : Yes
Format settings, ReFrames : 3 frames
Codec ID : 27
Duration : 2 h 41 min
Bit rate mode : Variable
Maximum bit rate : 30.0 Mb/s
Width : 1 920 pixels
Height : 1 080 pixels
Display aspect ratio : 16:9
Frame rate : 24.000 FPS
Color space : YUV
Chroma subsampling : 4:2:0
Bit depth : 8 bits
Scan type : Progressive
Color range : Limited
Color primaries : BT.709
Transfer characteristics : BT.709
Matrix coefficients : BT.709

Audio #1
ID : 4352 (0x1100)
Menu ID : 1 (0x1)
Format : DTS XLL
Format/Info : Digital Theater Systems
Commercial name : DTS-HD Master Audio
Codec ID : 134
Duration : 2 h 41 min
Bit rate mode : Variable
Channel(s) : 8 channels
Channel layout : C L R LFE Lb Rb Lss Rss
Sampling rate : 48.0 kHz
Frame rate : 93.750 FPS (512 SPF)
Bit depth : 24 bits
Compression mode : Lossless

Audio #2
ID : 4353 (0x1101)
Menu ID : 1 (0x1)
Format : AC-3
Format/Info : Audio Coding 3
Commercial name : Dolby Digital
Codec ID : 129
Duration : 2 h 41 min
Bit rate mode : Constant
Bit rate : 384 kb/s
Channel(s) : 6 channels
Channel layout : L R C LFE Ls Rs
Sampling rate : 48.0 kHz
Frame rate : 31.250 FPS (1536 SPF)
Bit depth : 16 bits
Compression mode : Lossy
Stream size : 444 MiB (1%)
Service kind : Complete Main

Audio #3
ID : 4354 (0x1102)
Menu ID : 1 (0x1)
Format : AC-3
Format/Info : Audio Coding 3
Commercial name : Dolby Digital
Codec ID : 129
Duration : 2 h 41 min
Bit rate mode : Constant
Bit rate : 192 kb/s
Channel(s) : 6 channels
Channel layout : L R C LFE Ls Rs
Sampling rate : 48.0 kHz
Frame rate : 31.250 FPS (1536 SPF)
Bit depth : 16 bits
Compression mode : Lossy
Stream size : 222 MiB (1%)
Service kind : Complete Main

Note : This is not original Blu-ray, i just found it in local market, it seems a good quality audio and video.

G- Drive Download 38 GB

G- Drive Parts Download 4.5 GB

Mersal (2017) Tamil – [BD50 Untouched – 1080p HD AVC – DD 7.1 – DTS HDMA].part01.rar – 4.4 GB

Mersal (2017) Tamil – [BD50 Untouched – 1080p HD AVC – DD 7.1 – DTS HDMA].part02.rar – 4.4 GB

Mersal (2017) Tamil – [BD50 Untouched – 1080p HD AVC – DD 7.1 – DTS HDMA].part03.rar – 4.4 GB

Mersal (2017) Tamil – [BD50 Untouched – 1080p HD AVC – DD 7.1 – DTS HDMA].part04.rar – 4.4 GB

Mersal (2017) Tamil – [BD50 Untouched – 1080p HD AVC – DD 7.1 – DTS HDMA].part05.rar – 4.4 GB

Mersal (2017) Tamil – [BD50 Untouched – 1080p HD AVC – DD 7.1 – DTS HDMA].part06.rar – 4.4 GB

Mersal (2017) Tamil – [BD50 Untouched – 1080p HD AVC – DD 7.1 – DTS HDMA].part07.rar – 4.4 GB

Mersal (2017) Tamil – [BD50 Untouched – 1080p HD AVC – DD 7.1 – DTS HDMA].part08.rar – 4.4 GB

Mersal (2017) Tamil – [BD50 Untouched – 1080p HD AVC – DD 7.1 – DTS HDMA].part09.rar – 2.8 GB

 

0 0 vote
Article Rating
Subscribe
Notify of
guest
0 Comments
Inline Feedbacks
View all comments