Mere Brother Ki Dulhan (2011) [ 4K ] VIDEO SONGS – UNTOUCHED (UHD) BluRay x265 10 bit – DTS-HD 5.1/ AC3 5.1 | 13.3 GB | DB9 |


Media Info:

Video
ID : 1
Format : HEVC
Format/Info : High Efficiency Video Coding
Format profile : Main [email protected]@High
Codec ID : V_MPEGH/ISO/HEVC
Duration : 5 min 33 s
Bit rate : 76.4 Mb/s
Width : 3 840 pixels
Height : 1 632 pixels
Display aspect ratio : 2.35:1
Frame rate mode : Constant
Frame rate : 24.000 FPS
Color space : YUV
Chroma subsampling : 4:2:0
Bit depth : 10 bits
Bits/(Pixel*Frame) : 0.508
Stream size : 2.96 GiB (89%)
Default : Yes
Forced : No
Color range : Limited
Color primaries : BT.709
Transfer characteristics : BT.709
Matrix coefficients : BT.709

Audio #1
ID : 5
Format : MLP FBA
Format/Info : Meridian Lossless Packing FBA
Commercial name : Dolby TrueHD
Codec ID : A_TRUEHD
Duration : 5 min 33 s
Bit rate mode : Variable
Bit rate : 3 679 kb/s
Maximum bit rate : 4 341 kb/s
Channel(s) : 6 channels
Channel layout : L R C LFE Ls Rs
Sampling rate : 48.0 kHz
Frame rate : 1 200.000 FPS (40 SPF)
Compression mode : Lossless
Stream size : 146 MiB (4%)
Language : Hindi
Default : Yes
Forced : No

Audio #2
ID : 4
Format : DTS XLL
Format/Info : Digital Theater Systems
Commercial name : DTS-HD Master Audio
Codec ID : A_DTS
Duration : 5 min 34 s
Bit rate mode : Variable
Bit rate : 5 335 kb/s
Channel(s) : 6 channels
Channel layout : C L R Ls Rs LFE
Sampling rate : 48.0 kHz
Frame rate : 93.750 FPS (512 SPF)
Bit depth : 24 bits
Compression mode : Lossless
Stream size : 212 MiB (6%)
Language : Hindi
Default : No
Forced : No

Audio #3
ID : 2
Format : AC-3
Format/Info : Audio Coding 3
Commercial name : Dolby Digital
Codec ID : A_AC3
Duration : 5 min 34 s
Bit rate mode : Constant
Bit rate : 640 kb/s
Channel(s) : 6 channels
Channel layout : L R C LFE Ls Rs
Sampling rate : 48.0 kHz
Frame rate : 31.250 FPS (1536 SPF)
Compression mode : Lossy
Stream size : 25.5 MiB (1%)
Language : Hindi
Service kind : Complete Main
Default : No
Forced : No


Screenshots:

e20a7cbd90703b27c33b4fe93eb621e9.png (1920×817)

Title Song [4K] – Mere Brother Ki Dulhan (2011) 1080p BluRay DTS 5.1- AC3 5.1 – 2.56GB DB9

https://drive.klop.me/file/4c38691e91

Choomantar [4K] – Mere Brother Ki Dulhan (2011) 1080p BluRay DTS 5.1- AC3 5.1 – 2.63 GB DB9

https://drive.klop.me/file/a981cbf244

Ishq Risk [4K] – Mere Brother Ki Dulhan (2011) 1080p BluRay DTS 5.1- AC3 5.1 – 2.09 GB- DB9

https://drive.klop.me/file/d815c2e843

Madhubala [4K] – Mere Brother Ki Dulhan (2011) 1080p BluRay DTS 5.1- AC3 5.1 2.73 GB – DB9

https://drive.klop.me/file/d8ce3d4b0d

Do Dhaari Talwar -[4K] Mere Brother Ki Dulhan (2011) 1080p BluRay DTS 5.1 – 3.34 GB – DB9

https://drive.klop.me/file/4af76ab127

0 0 vote
Article Rating
Subscribe
Notify of
guest
0 Comments
Inline Feedbacks
View all comments