Men in Black_ International (2019) UHD BluRay 2160p TrueHD Dual Audio { English 7.1 + Hindi 5.1 } HDR HEVC REMUX -SaturnWeb

Format : Matroska
Format version : Version 4
File size : 40.7 GiB
Duration : 1 h 54 min
Overall bit rate mode : Variable
Overall bit rate : 50.8 Mb/s
Movie name : Men in Black: International 4K
Encoded date : UTC 2019-11-08 02:21:39
Writing application : mkvmerge v29.0.0 (‘Like It Or Not’) 32-bit
Writing library : libebml v1.3.6 + libmatroska v1.4.9

Video
ID : 1
Format : HEVC
Format/Info : High Efficiency Video Coding
Commercial name : HDR10
Format profile : Main [email protected]@High
Codec ID : V_MPEGH/ISO/HEVC
Duration : 1 h 54 min
Bit rate : 46.2 Mb/s
Width : 3 840 pixels
Height : 2 160 pixels
Display aspect ratio : 16:9
Frame rate mode : Constant
Frame rate : 23.976 (24000/1001) FPS
Color space : YUV
Chroma subsampling : 4:2:0 (Type 2)
Bit depth : 10 bits
Bits/(Pixel*Frame) : 0.232
Stream size : 37.1 GiB (91%)
Default : Yes
Forced : No
Color range : Limited
Color primaries : BT.2020
Transfer characteristics : PQ
Matrix coefficients : BT.2020 non-constant
Mastering display color primaries : Display P3
Mastering display luminance : min: 0.0050 cd/m2, max: 4000 cd/m2
Maximum Content Light Level : 9008 cd/m2
Maximum Frame-Average Light Level : 942 cd/m2

Audio #1
ID : 2
Format : MLP FBA 16-ch
Format/Info : Meridian Lossless Packing FBA with 16-channel presentation
Commercial name : Dolby TrueHD with Dolby Atmos
Codec ID : A_TRUEHD
Duration : 1 h 54 min
Bit rate mode : Variable
Bit rate : 3 140 kb/s
Maximum bit rate : 3 762 kb/s
Channel(s) : 8 channels
Channel layout : L R C LFE Ls Rs Lb Rb
Sampling rate : 48.0 kHz
Frame rate : 1 200.000 FPS (40 SPF)
Compression mode : Lossless
Stream size : 2.52 GiB (6%)
Title : TrueHD Atmos 7.1
Language : English
Default : Yes
Forced : No
Number of dynamic objects : 11
Bed channel count : 1 channel
Bed channel configuration : LFE

Audio #2
ID : 3
Format : AC-3
Format/Info : Audio Coding 3
Commercial name : Dolby Digital
Codec ID : A_AC3
Duration : 1 h 54 min
Bit rate mode : Constant
Bit rate : 640 kb/s
Channel(s) : 6 channels
Channel layout : L R C LFE Ls Rs
Sampling rate : 48.0 kHz
Frame rate : 31.250 FPS (1536 SPF)
Bit depth : 16 bits
Compression mode : Lossy
Stream size : 526 MiB (1%)
Title : AC3 5.1
Language : English
Service kind : Complete Main
Default : No
Forced : No

Audio #3
ID : 8
Format : AC-3
Format/Info : Audio Coding 3
Commercial name : Dolby Digital
Codec ID : A_AC3
Duration : 1 h 54 min
Bit rate mode : Constant
Bit rate : 640 kb/s
Channel(s) : 6 channels
Channel layout : L R C LFE Ls Rs
Sampling rate : 48.0 kHz
Frame rate : 31.250 FPS (1536 SPF)
Bit depth : 16 bits
Compression mode : Lossy
Stream size : 526 MiB (1%)
Title : HIndi 5.1 SaturnWeb
Service kind : Complete Main
Default : No
Forced : No

Text #1
ID : 4
Format : PGS
Muxing mode : zlib
Codec ID : S_HDMV/PGS
Codec ID/Info : Picture based subtitle format used on BDs/HD-DVDs
Duration : 1 h 43 min
Bit rate : 40.4 kb/s
Count of elements : 2970
Stream size : 29.9 MiB (0%)
Title : English
Language : English
Default : No
Forced : No

Text #2
ID : 5
Format : PGS
Muxing mode : zlib
Codec ID : S_HDMV/PGS
Codec ID/Info : Picture based subtitle format used on BDs/HD-DVDs
Duration : 1 h 44 min
Bit rate : 45.5 kb/s
Count of elements : 3560
Stream size : 34.1 MiB (0%)
Title : English (SDH)
Language : English
Default : No
Forced : No

Text #3
ID : 6
Format : PGS
Muxing mode : zlib
Codec ID : S_HDMV/PGS
Codec ID/Info : Picture based subtitle format used on BDs/HD-DVDs
Duration : 1 h 53 min
Bit rate : 29.2 kb/s
Count of elements : 2942
Stream size : 23.6 MiB (0%)
Title : French
Language : French
Default : No
Forced : No

Text #4
ID : 7
Format : PGS
Muxing mode : zlib
Codec ID : S_HDMV/PGS
Codec ID/Info : Picture based subtitle format used on BDs/HD-DVDs
Duration : 1 h 53 min
Bit rate : 35.1 kb/s
Count of elements : 2854
Stream size : 28.5 MiB (0%)
Title : Spanish (Latin American)
Language : Spanish
Default : No
Forced : No

Menu
00:00:00.000 : en:Chapter 01
00:07:58.394 : en:Chapter 02
00:15:32.890 : en:Chapter 03
00:20:09.583 : en:Chapter 04
00:27:17.135 : en:Chapter 05
00:34:29.650 : en:Chapter 06
00:46:10.267 : en:Chapter 07
00:50:31.653 : en:Chapter 08
00:59:01.204 : en:Chapter 09
01:03:12.914 : en:Chapter 10
01:10:51.413 : en:Chapter 11
01:14:35.888 : en:Chapter 12
01:25:31.376 : en:Chapter 13
01:28:49.574 : en:Chapter 14
01:34:29.246 : en:Chapter 15
01:43:31.830 : en:Chapter 16

Full Movie Download 

https://sharer.pw/file/UsPXUjmvVvs

https://drive.klop.me/file/1ce4c781e9

Download In Parts 4.5 GB

Men in Black_ International (2019) UHD BluRay 2160p TrueHD Dual Audio { English 7.1 + Hindi 5.1 } HDR HEVC REMUX -SaturnWeb.part01.rar
Men in Black_ International (2019) UHD BluRay 2160p TrueHD Dual Audio { English 7.1 + Hindi 5.1 } HDR HEVC REMUX -SaturnWeb.part02.rar
Men in Black_ International (2019) UHD BluRay 2160p TrueHD Dual Audio { English 7.1 + Hindi 5.1 } HDR HEVC REMUX -SaturnWeb.part03.rar
Men in Black_ International (2019) UHD BluRay 2160p TrueHD Dual Audio { English 7.1 + Hindi 5.1 } HDR HEVC REMUX -SaturnWeb.part04.rar
Men in Black_ International (2019) UHD BluRay 2160p TrueHD Dual Audio { English 7.1 + Hindi 5.1 } HDR HEVC REMUX -SaturnWeb.part05.rar
Men in Black_ International (2019) UHD BluRay 2160p TrueHD Dual Audio { English 7.1 + Hindi 5.1 } HDR HEVC REMUX -SaturnWeb.part06.rar
Men in Black_ International (2019) UHD BluRay 2160p TrueHD Dual Audio { English 7.1 + Hindi 5.1 } HDR HEVC REMUX -SaturnWeb.part07.rar
Men in Black_ International (2019) UHD BluRay 2160p TrueHD Dual Audio { English 7.1 + Hindi 5.1 } HDR HEVC REMUX -SaturnWeb.part08.rar
Men in Black_ International (2019) UHD BluRay 2160p TrueHD Dual Audio { English 7.1 + Hindi 5.1 } HDR HEVC REMUX -SaturnWeb.part09.rar
Men in Black_ International (2019) UHD BluRay 2160p TrueHD Dual Audio { English 7.1 + Hindi 5.1 } HDR HEVC REMUX -SaturnWeb.part10.rar

https://sharer.pw/file/YfP_F76fBJA

Men in Black_ International (2019) UHD BluRay 2160p TrueHD Dual Audio { English 7.1 + Hindi 5.1 } HDR HEVC REMUX -SaturnWeb.part10.rar – 1.3 GB

Men in Black_ International (2019) UHD BluRay 2160p TrueHD Dual Audio { English 7.1 + Hindi 5.1 } HDR HEVC REMUX -SaturnWeb.part09.rar – 4.4 GB

Men in Black_ International (2019) UHD BluRay 2160p TrueHD Dual Audio { English 7.1 + Hindi 5.1 } HDR HEVC REMUX -SaturnWeb.part08.rar – 4.4 GB

Men in Black_ International (2019) UHD BluRay 2160p TrueHD Dual Audio { English 7.1 + Hindi 5.1 } HDR HEVC REMUX -SaturnWeb.part07.rar – 4.4 GB

Men in Black_ International (2019) UHD BluRay 2160p TrueHD Dual Audio { English 7.1 + Hindi 5.1 } HDR HEVC REMUX -SaturnWeb.part06.rar – 4.4 GB

Men in Black_ International (2019) UHD BluRay 2160p TrueHD Dual Audio { English 7.1 + Hindi 5.1 } HDR HEVC REMUX -SaturnWeb.part05.rar – 4.4 GB

Men in Black_ International (2019) UHD BluRay 2160p TrueHD Dual Audio { English 7.1 + Hindi 5.1 } HDR HEVC REMUX -SaturnWeb.part04.rar – 4.4 GB

Men in Black_ International (2019) UHD BluRay 2160p TrueHD Dual Audio { English 7.1 + Hindi 5.1 } HDR HEVC REMUX -SaturnWeb.part03.rar – 4.4 GB

Men in Black_ International (2019) UHD BluRay 2160p TrueHD Dual Audio { English 7.1 + Hindi 5.1 } HDR HEVC REMUX -SaturnWeb.part02.rar – 4.4 GB

Men in Black_ International (2019) UHD BluRay 2160p TrueHD Dual Audio { English 7.1 + Hindi 5.1 } HDR HEVC REMUX -SaturnWeb.part01.rar – 4.4 GB

0 0 vote
Article Rating
Subscribe
Notify of
guest
1 Comment
Oldest
Newest Most Voted
Inline Feedbacks
View all comments
Mehedi Hasan
Mehedi Hasan
1 year ago

PLEASE More Heart Touching Music Video Collection Please Upload bro…..