Mastizaade 2016 1080p WebDL x264 AC3 5.1 ESubs

Mastizaade 2016 1080p WebDL x264 AC3 5.1 ESubs

INFORMATION

General
Format      :      Matroska
Format version        :       Version 4 / Version 2
File size        :     6.67 GiB
Duration          :      1 h 45 min
Overall bit rate            :      9 011 kb/s

Video

Format         :      AVC
Format/Info          :      Advanced Video Codec
Format profile         :      [email protected]
Format settings         :      CABAC / 2 Ref Frames
Format settings, CABAC        :      Yes
Format settings, ReFrames      :      2 frames
Format settings, GOP        :     M=1, N=12
Codec ID         :      V_MPEG4/ISO/AVC
Duration          :      1 h 45 min
Bit rate           :       8 821 kb/s
Width            :       1 920 pixels
Height          :       1 080 pixels
Display aspect ratio        :    16:9
Frame rate mode        :     Constant
Frame rate           :      24.000 FPS
Color space         :      YUV
Chroma subsampling          :      4:2:0
Bit depth         :      8 bits
Scan type          :       Progressive
Bits/(Pixel*Frame)          :      0.177
Stream size         :       6.53 GiB (98%)

Audio

Format           :       E-AC-3
Format/Info         :      Enhanced Audio Coding 3
Codec ID          :      A_EAC3
Duration         :       1 h 45 min
Bit rate mode        :     Constant
Bit rate           :      192 kb/s
Channel(s)         :      6 channels
Channel positions           :     Front: L C R, Side: L R, LFE
Sampling rate       :     48.0 kHz
Frame rate        :    187.500 FPS (256 SPF)
Compression mode        :     Lossy
Delay relative to video       :     -42 ms
Stream size        :     146 MiB (2%)

Text

Format         :     UTF-8
Codec ID           :     S_TEXT/UTF8
Codec ID/Info       :     UTF-8 Plain Text
Duration         :      1 h 44 min
Bit rate         :     66 b/s
Count of elements        :     1808
Stream size       :     50.8 KiB (0%)

 

0 0 vote
Article Rating
Subscribe
Notify of
guest
0 Comments
Inline Feedbacks
View all comments