Master.Z.Ip.Man.Legacy.2018.CHINESE.1080p.10bit.BluRay.6CH.x265.HEVC-PSA Hin Eng 2.0Gb

Master Z: Ip Man Legacy [Blu-ray+DVD]: Michelle ... - Amazon.com

Format : Matroska
Format version : Version 4
File size : 2.01 GiB
Duration : 1 h 47 min
Overall bit rate : 2 674 kb/s
Master.Z.Ip.Man.Legacy.2018.CHINESE.1080p.10bit.BluRay.6CH.x265.HEVC-PSA
Encoded date : UTC 2020-05-28 13:31:57
Writing application : mkvmerge v46.0.0 (‘No Deeper Escape’) 64-bit
Writing library : libebml v1.3.10 + libmatroska v1.5.2
Cover : Yes
Attachments : Cover.jpg

Video
ID : 1
Format : HEVC
Format/Info : High Efficiency Video Coding
Format profile : Main [email protected]@Main
Codec ID : V_MPEGH/ISO/HEVC
Duration : 1 h 47 min
Bit rate : 2 059 kb/s
Width : 1 920 pixels
Height : 856 pixels
Display aspect ratio : 2.25:1
Frame rate mode : Constant
Frame rate : 24.000 FPS
Color space : YUV
Chroma subsampling : 4:2:0
Bit depth : 10 bits
Bits/(Pixel*Frame) : 0.052
Stream size : 1.55 GiB (77%)
Default : Yes
Forced : No

Audio #1
ID : 2
Format : AAC LC SBR
Format/Info : Advanced Audio Codec Low Complexity with Spectral Band Replication
Commercial name : HE-AAC
Format settings : Explicit
Codec ID : A_AAC-2
Duration : 1 h 47 min
Bit rate : 206 kb/s
Channel(s) : 6 channels
Channel layout : C L R Ls Rs LFE
Sampling rate : 48.0 kHz
Frame rate : 23.438 FPS (2048 SPF)
Compression mode : Lossy
Delay relative to video : 8 ms
Stream size : 158 MiB (8%)
Language : Chinese
Default : Yes
Forced : No

Audio #2
ID : 3
Format : AAC LC SBR
Format/Info : Advanced Audio Codec Low Complexity with Spectral Band Replication
Commercial name : HE-AAC
Format settings : Explicit
Codec ID : A_AAC-2
Duration : 1 h 47 min
Bit rate : 215 kb/s
Channel(s) : 6 channels
Channel layout : C L R Ls Rs LFE
Sampling rate : 48.0 kHz
Frame rate : 23.438 FPS (2048 SPF)
Compression mode : Lossy
Delay relative to video : 31 ms
Stream size : 165 MiB (8%)
Language : Chinese
Default : No
Forced : No

Audio #3
ID : 5
Format : AC-3
Format/Info : Audio Coding 3
Commercial name : Dolby Digital
Codec ID : A_AC3
Duration : 1 h 47 min
Bit rate mode : Constant
Bit rate : 192 kb/s
Channel(s) : 2 channels
Channel layout : L R
Sampling rate : 48.0 kHz
Frame rate : 31.250 FPS (1536 SPF)
Compression mode : Lossy
Stream size : 148 MiB (7%)
Title : Track 2 Hindi
Language : Hindi
Service kind : Complete Main
Default : No
Forced : Yes

Text #1
ID : 4
Format : UTF-8
Codec ID : S_TEXT/UTF8
Codec ID/Info : UTF-8 Plain Text
Duration : 1 h 44 min
Bit rate : 36 b/s
Count of elements : 1248
Stream size : 28.3 KiB (0%)
Language : English
Default : Yes
Forced : No

Text #2
ID : 6
Format : UTF-8
Codec ID : S_TEXT/UTF8
Codec ID/Info : UTF-8 Plain Text
Duration : 1 h 44 min
Bit rate : 103 b/s
Count of elements : 1247
Stream size : 78.7 KiB (0%)
Title : Hindi Subs
Language : Hindi
Default : No
Forced : No

vlcsnap-2020-05-29-15h47m32s228vlcsnap-2020-05-29-15h47m14s184.pngvlcsnap-2020-05-29-15h48m09s895vlcsnap-2020-05-29-15h51m25s087vlcsnap-2020-05-29-15h48m42s853
Gdrive Single Link+Download
https://bit.ly/2TNu4l2

0 0 vote
Article Rating
Subscribe
Notify of
guest
0 Comments
Inline Feedbacks
View all comments