Marvel’s Jessica Jones S01 (2015) Hindi 720p HEVC NF WEB-DL DDP 2.0 H265 – RONIN | G- Drive |

Format : Matroska
Format version : Version 4
File size : 439 MiB
Duration : 53 min 1 s
Overall bit rate mode : Variable
Overall bit rate : 1 158 kb/s
Encoded date : UTC 2019-12-11 07:59:36 / UTC 2019-12-03 13:25:55
Writing application : mkvmerge v37.0.0 (‘Leave It’) 64-bit
Writing library : libebml v1.3.9 + libmatroska v1.5.2 / Lavf58.1.0

Video
ID : 1
Format : AVC
Format/Info : Advanced Video Codec
Format profile : [email protected]
Format settings : CABAC / 4 Ref Frames
Format settings, CABAC : Yes
Format settings, ReFrames : 4 frames
Codec ID : V_MPEG4/ISO/AVC
Duration : 53 min 1 s
Bit rate mode : Variable
Bit rate : 1 007 kb/s
Maximum bit rate : 14.0 Mb/s
Width : 1 280 pixels
Height : 720 pixels
Display aspect ratio : 16:9
Frame rate mode : Constant
Frame rate : 23.976 (24000/1001) FPS
Color space : YUV
Chroma subsampling : 4:2:0
Bit depth : 8 bits
Scan type : Progressive
Bits/(Pixel*Frame) : 0.046
Stream size : 382 MiB (87%)
Writing library : x264 core 148 r2715 7e75228
Encoding settings : cabac=1 / ref=4 / deblock=1:0:0 / analyse=0x3:0x111 / me=umh / subme=10 / psy=1 / psy_rd=1.00:0.00 / mixed_ref=1 / me_range=120 / chroma_me=1 / trellis=2 / 8x8dct=1 / cqm=0 / deadzone=21,11 / fast_pskip=1 / chroma_qp_offset=-2 / threads=8 / lookahead_threads=2 / sliced_threads=0 / nr=0 / decimate=1 / interlaced=0 / bluray_compat=0 / stitchable=1 / constrained_intra=0 / bframes=16 / b_pyramid=2 / b_adapt=2 / b_bias=0 / direct=3 / weightb=1 / open_gop=0 / weightp=2 / keyint=240 / keyint_min=121 / scenecut=0 / intra_refresh=0 / rc_lookahead=240 / rc=crf / mbtree=1 / crf=24.0 / qcomp=0.50 / qpmin=6 / qpmax=51 / qpstep=4 / vbv_maxrate=14000 / vbv_bufsize=14000 / crf_max=0.0 / nal_hrd=vbr / filler=0 / ip_ratio=1.40 / aq=1:0.80
Default : Yes
Forced : No

Audio
ID : 2
Format : E-AC-3
Format/Info : Enhanced AC-3
Commercial name : Dolby Digital Plus
Codec ID : A_EAC3
Duration : 53 min 1 s
Bit rate mode : Constant
Bit rate : 128 kb/s
Channel(s) : 2 channels
Channel layout : L R
Sampling rate : 48.0 kHz
Frame rate : 31.250 FPS (1536 SPF)
Compression mode : Lossy
Stream size : 48.5 MiB (11%)
Language : Hindi
Service kind : Complete Main
Default : Yes
Forced : No
Encoded date : UTC 2019-12-03 13:25:55

Text
ID : 3
Format : UTF-8
Codec ID : S_TEXT/UTF8
Codec ID/Info : UTF-8 Plain Text
Title : English_Full
Language : English
Default : No
Forced : No

 Zip Download 

https://thefileslocker.com/tpqd4zp6ysrv.html

G- Drive Download 

Marvel’s.Jessica.Jones.S01E01.AKA.Ladies.Night 720p NF WEB-DL DDP 2.0 h265 ~RONIN~.mkv

Marvel’s.Jessica.Jones.S01E02.AKA.Crush.Syndrome 720p NF WEB-DL DDP 2.0 h265 ~RONIN~.mkv

Marvel’s.Jessica.Jones.S01E03.AKA.Its.Called.Whiskey 720p NF WEB-DL DDP 2.0 h265 ~RONIN~.mkv

Marvel’s.Jessica.Jones.S01E04.AKA.99.Friends 720p NF WEB-DL DDP 2.0 h265 ~RONIN~.mkv

Marvel’s.Jessica.Jones.S01E05.AKA.The.Sandwich.Saved.Me 720p NF WEB-DL DDP 2.0 h265 ~RONIN~.mkv

Marvel’s.Jessica.Jones.S01E06.AKA.Youre.a.Winner! 720p NF WEB-DL DDP 2.0 h265 ~RONIN~.mkv

Marvel’s.Jessica.Jones.S01E07.AKA.Top.Shelf.Perverts 720p NF WEB-DL DDP 2.0 h265 ~RONIN~.mkv

Marvel’s.Jessica.Jones.S01E08.AKA.WWJD 720p NF WEB-DL DDP 2.0 h265 ~RONIN~.mkv

Marvel’s.Jessica.Jones.S01E09.AKA.Sin.Bin 720p NF WEB-DL DDP 2.0 h265 ~RONIN~.mkv

Marvel’s.Jessica.Jones.S01E10.AKA.1000.Cuts 720p NF WEB-DL DDP 2.0 h265 ~RONIN~.mkv

Marvel’s.Jessica.Jones.S01E11.AKA.Ive.Got.the.Blues 720p NF WEB-DL DDP 2.0 h265 ~RONIN~.mkv

Marvel’s.Jessica.Jones.S01E12.AKA.Take.a.Bloody.Number 720p NF WEB-DL DDP 2.0 h265 ~RONIN~.mkv

Marvel’s.Jessica.Jones.S01E13.AKA.Smile 720p NF WEB-DL DDP 2.0 h265 ~RONIN~.mkv

The File LOcker Download 

Marvel’s.Jessica.Jones.S01E01.AKA.Ladies.Night 720p NF WEB-DL DDP 2.0 h265 ~RONIN~.mkv – 476.3 MB

Marvel’s.Jessica.Jones.S01E02.AKA.Crush.Syndrome 720p NF WEB-DL DDP 2.0 h265 ~RONIN~.mkv – 439.1 MB

Marvel’s.Jessica.Jones.S01E03.AKA.Its.Called.Whiskey 720p NF WEB-DL DDP 2.0 h265 ~RONIN~.mkv – 579.4 MB

Marvel’s.Jessica.Jones.S01E04.AKA.99.Friends 720p NF WEB-DL DDP 2.0 h265 ~RONIN~.mkv – 407.9 MB

Marvel’s.Jessica.Jones.S01E05.AKA.The.Sandwich.Saved.Me 720p NF WEB-DL DDP 2.0 h265 ~RONIN~.mkv – 712.0 MB

Marvel’s.Jessica.Jones.S01E06.AKA.Youre.a.Winner! 720p NF WEB-DL DDP 2.0 h265 ~RONIN~.mkv – 600.0 MB

Marvel’s.Jessica.Jones.S01E07.AKA.Top.Shelf.Perverts 720p NF WEB-DL DDP 2.0 h265 ~RONIN~.mkv – 573.9 MB

Marvel’s.Jessica.Jones.S01E08.AKA.WWJD 720p NF WEB-DL DDP 2.0 h265 ~RONIN~.mkv – 464.3 MB

Marvel’s.Jessica.Jones.S01E09.AKA.Sin.Bin 720p NF WEB-DL DDP 2.0 h265 ~RONIN~.mkv – 558.7 MB

Marvel’s.Jessica.Jones.S01E10.AKA.1000.Cuts 720p NF WEB-DL DDP 2.0 h265 ~RONIN~.mkv – 500.7 MB

Marvel’s.Jessica.Jones.S01E11.AKA.Ive.Got.the.Blues 720p NF WEB-DL DDP 2.0 h265 ~RONIN~.mkv – 552.7 MB

Marvel’s.Jessica.Jones.S01E12.AKA.Take.a.Bloody.Number 720p NF WEB-DL DDP 2.0 h265 ~RONIN~.mkv – 584.9 MB

Marvel’s.Jessica.Jones.S01E13.AKA.Smile 720p NF WEB-DL DDP 2.0 h265 ~RONIN~.mkv – 521.9 MB

0 0 vote
Article Rating
Subscribe
Notify of
guest
1 Comment
Oldest
Newest Most Voted
Inline Feedbacks
View all comments
Pankaj singh Bisht
Pankaj singh Bisht
1 year ago

6.Underground.2019.1080p.NF.WEB-DL.DD+5.1.Atmos.H264-~DUSIcTv.mkv