Maine Pyar Kiya 1989 VHQ 1080p Bluray x264 DTS-HDMA 5.1 -DDR 25Gb

Maine Pyar Kiya Raj Song Download: Maine Pyar Kiya Raj MP3 ...

Complete name : Maine Pyar Kiya 1989 VHQ 1080p Bluray x264 DTS-HDMA 5.1 -DDR
Format : Matroska
Format version : Version 4
File size : 25.0 GiB
Duration : 3 h 12 min
Overall bit rate mode : Variable
Overall bit rate : 17.8 Mb/s
Writing application : mkvmerge v9.9.0 (‘Pick Up’) 64bit
Writing library : libebml v1.3.4 + libmatroska v1.4.5
Video
ID : 1
Format : AVC
Format/Info : Advanced Video Codec
Format profile : [email protected]
Format settings : CABAC / 5 Ref Frames
Format settings, CABAC : Yes
Format settings, Reference frames : 5 frames
Codec ID : V_MPEG4/ISO/AVC
Duration : 3 h 12 min
Bit rate : 14.0 Mb/s
Width : 1 920 pixels
Height : 796 pixels
Display aspect ratio : 2.40:1
Frame rate mode : Constant
Frame rate : 24.000 FPS
Color space : YUV
Chroma subsampling : 4:2:0
Bit depth : 8 bits
Scan type : Progressive
Bits/(Pixel*Frame) : 0.382
Stream size : 18.8 GiB (79%)
Writing library : x264 core 148 r2744 b97ae06
Encoding settings : cabac=1 / ref=5 / deblock=1:-2:-1 / analyse=0x3:0x133 / me=umh / subme=10 / psy=1 / psy_rd=1.00:1.50 / mixed_ref=1 / me_range=24 / chroma_me=1 / trellis=2 / 8x8dct=1 / cqm=0 / deadzone=21,11 / fast_pskip=1 / chroma_qp_offset=-4 / threads=25 / lookahead_threads=4 / sliced_threads=0 / nr=0 / decimate=0 / interlaced=0 / bluray_compat=0 / constrained_intra=0 / bframes=8 / b_pyramid=0 / b_adapt=2 / b_bias=0 / direct=3 / weightb=1 / open_gop=0 / weightp=2 / keyint=230 / keyint_min=23 / scenecut=288 / intra_refresh=0 / rc_lookahead=60 / rc=2pass / mbtree=1 / bitrate=14001 / ratetol=1.0 / qcomp=0.90 / qpmin=3 / qpmax=69 / qpstep=4 / cplxblur=20.0 / qblur=0.5 / ip_ratio=1.40 / aq=1:1.00
Language : English
Default : Yes
Forced : No
Color range : Limited
Color primaries : BT.709
Transfer characteristics : BT.709
Matrix coefficients : BT.709
Audio
ID : 2
Format : DTS XLL
Format/Info : Digital Theater Systems
Commercial name : DTS-HD Master Audio
Codec ID : A_DTS
Duration : 3 h 12 min
Bit rate mode : Variable
Bit rate : 3 808 kb/s
Channel(s) : 6 channels
Channel layout : C L R Ls Rs LFE
Sampling rate : 48.0 kHz
Frame rate : 93.750 FPS (512 SPF)
Bit depth : 24 bits
Compression mode : Lossless
Stream size : 5.11 GiB (21%)
Language : Hindi
Default : Yes
Forced : No
Text
ID : 3
Format : PGS
Muxing mode : zlib
Codec ID : S_HDMV/PGS
Codec ID/Info : Picture based subtitle format used on BDs/HD-DVDs
Duration : 3 h 11 min
Bit rate : 13.0 kb/s
Count of elements : 3688
Stream size : 17.8 MiB (0%)
Language : English
Default : Yes
Forced : No
Menu
00:00:00.000 : en:00:00:00.000
00:00:55.875 : en:00:00:55.875
00:04:17.583 : en:00:04:17.583
00:11:33.750 : en:00:11:33.750
00:21:17.167 : en:00:21:17.167
00:26:17.292 : en:00:26:17.292
00:35:15.875 : en:00:35:15.875
00:43:48.000 : en:00:43:48.000
00:58:45.500 : en:00:58:45.500
01:09:31.333 : en:01:09:31.333
01:21:19.375 : en:01:21:19.375
01:31:06.625 : en:01:31:06.625
01:36:08.000 : en:01:36:08.000
01:42:31.250 : en:01:42:31.250
01:45:20.583 : en:01:45:20.583
01:52:16.000 : en:01:52:16.000
02:00:43.917 : en:02:00:43.917
02:08:36.333 : en:02:08:36.333
02:13:27.083 : en:02:13:27.083
02:22:28.333 : en:02:22:28.333
02:28:28.542 : en:02:28:28.542
02:40:35.625 : en:02:40:35.625
02:46:08.333 : en:02:46:08.333
02:51:38.083 : en:02:51:38.083
03:01:25.792 : en:03:01:25.792

vlcsnap-2020-04-08-22h07m34s658vlcsnap-2020-04-08-22h07m28s236vlcsnap-2020-04-08-22h07m38s863vlcsnap-2020-04-08-22h07m44s769vlcsnap-2020-04-08-22h07m51s178vlcsnap-2020-04-08-22h07m58s572vlcsnap-2020-04-08-22h08m04s322vlcsnap-2020-04-08-22h08m09s776vlcsnap-2020-04-08-22h08m16s526vlcsnap-2020-04-08-22h09m02s531
Gdrive Link Single File+Download

https://bit.ly/3e5ULdl

mega.co.nz Single File Link+Download
https://bit.ly/34lKqW9

1 1 vote
Article Rating
Subscribe
Notify of
guest
0 Comments
Inline Feedbacks
View all comments