Maine Pyaar Kyun Kiya (2005) (MUSIC VIDEOS ALBUM) 1080p Untouched WebHD AVC DDP 5.1 By-DusIcTv

General
Format : Matroska
Format version : Version 4
File size : 1.63 GB
Overall bit rate mode : Variable
Overall bit rate : 8 070 kb/s
Encoded date : UTC 2020-01-04 16:28:24
Writing application : mkvmerge v41.0.0 (‘Smarra’) 64-bit
Writing library : libebml v1.3.9 + libmatroska v1.5.2

Video
ID : 1
Format : AVC
Format/Info : Advanced Video Codec
Format profile : [email protected]
Format settings : CABAC / 3 Ref Frames
Format settings, CABAC : Yes
Format settings, Reference frames : 3 frames
Codec ID : V_MPEG4/ISO/AVC
Bit rate mode : Variable
Bit rate : 7 428 kb/s
Maximum bit rate : 10.7 Mb/s
Width : 1 920 pixels
Height : 1 080 pixels
Display aspect ratio : 16:9
Frame rate mode : Constant
Frame rate : 25.000 FPS
Color space : YUV
Chroma subsampling : 4:2:0
Bit depth : 8 bits
Scan type : Progressive
Bits/(Pixel*Frame) : 0.143
Stream size : 267 MiB (92%)
Default : Yes
Forced : No

Audio
ID : 2
Format : E-AC-3
Format/Info : Enhanced AC-3
Commercial name : Dolby Digital Plus
Codec ID : A_EAC3
Bit rate mode : Constant
Bit rate : 640 kb/s
Channel(s) : 6 channels
Channel layout : L R C LFE Ls Rs
Sampling rate : 48.0 kHz
Frame rate : 31.250 FPS (1536 SPF)
Compression mode : Lossy
Delay relative to video : 16 ms
Stream size : 23.0 MiB (8%)
Service kind : Complete Main
Default : Yes
Forced : No

Text
ID : 3
Format : UTF-8
Codec ID : S_TEXT/UTF8
Codec ID/Info : UTF-8 Plain Text
Bit rate : 96 b/s
Count of elements : 55
Stream size : 3.22 KiB (0%)
Title : English_Full
Language : English
Default : No
Forced : No

This Movie Songs Rip For @Special26

Zip Download 

 

The File Locker Download

01-Yeh Ladki [By-DusIcTv].mkv – 214.1 MB

02-Laga Prem Rog [By-DusIcTv].mkv – 290.5 MB

03-Just Chill [By-DusIcTv].mkv – 271.0 MB

04-Sajan Tumse Pyar [By-DusIcTv].mkv – 248.8 MB

05-Teri Meri Love Story [By-DusIcTv].mkv – 234.5 MB

06-Dil Di Nazar [By-DusIcTv].mkv – 295.2 MB

07-End Music Mix [By-DusIcTv].mkv – 124.5 MB

0 0 vote
Article Rating
Subscribe
Notify of
guest
2 Comments
Oldest
Newest Most Voted
Inline Feedbacks
View all comments
prakash
prakash
1 year ago

lamhaa 2010 flac you are my last hope

Abhi
1 year ago

Sir Audio ni chal rahi h