Maine Pyaar Kiya (1989) (MUSIC VIDEOS ALBUM) 1080p WebHD AVC DDP 2.0 ESuBS By-DusIcTv

xxxxxxxxxxxxxxxxxxxxxxxxxxxxxxxxxxxxxxxxxxxxxxxxxxxxxxxxxxxxxxxxxxxxxxxxxxxxxxxxxxxxxxxxxxxxxxxxxxx
Maine Pyaar Kiya (1989) (MUSIC VIDEOS ALBUM) 1080p WebHD AVC DDP 2.0 ESuBS By-DusIcTv
xxxxxxxxxxxxxxxxxxxxxxxxxxxxxxxxxxxxxxxxxxxxxxxxxxxxxxxxxxxxxxxxxxxxxxxxxxxxxxxxxxxxxxxxxxxxxxxxxxx

General
Format : Matroska
Format version : Version 4
File size : 4.10 GB
Overall bit rate : 7 055 kb/s
Encoded date : UTC 2019-11-02 18:04:44
Writing application : mkvmerge v38.0.0 (‘The Silent Type’) 64-bit
Writing library : libebml v1.3.9 + libmatroska v1.5.2

Video
ID : 1
Format : AVC
Format/Info : Advanced Video Codec
Format profile : [email protected]
Format settings : CABAC / 4 Ref Frames
Format settings, CABAC : Yes
Format settings, Reference frames : 4 frames
Codec ID : V_MPEG4/ISO/AVC
Bit rate : 6 828 kb/s
Width : 1 920 pixels
Height : 816 pixels
Display aspect ratio : 2.35:1
Frame rate mode : Constant
Frame rate : 24.000 FPS
Color space : YUV
Chroma subsampling : 4:2:0
Bit depth : 8 bits
Scan type : Progressive
Bits/(Pixel*Frame) : 0.182
Stream size : 67.7 MiB (97%)
Title : By-DusIcTv
Default : Yes
Forced : No
Color range : Limited
Color primaries : BT.709
Transfer characteristics : BT.709
Matrix coefficients : BT.709

Audio
ID : 3
Format : E-AC-3
Format/Info : Enhanced AC-3
Commercial name : Dolby Digital Plus
Codec ID : A_EAC3
Bit rate mode : Constant
Bit rate : 224 kb/s
Channel(s) : 2 channels
Channel layout : L R
Sampling rate : 48.0 kHz
Frame rate : 31.250 FPS (1536 SPF)
Compression mode : Lossy
Delay relative to video : 3 ms
Stream size : 2.22 MiB (3%)
Title : By-DusIcTv
Service kind : Complete Main
Default : Yes
Forced : No

Text
ID : 2
Format : UTF-8
Codec ID : S_TEXT/UTF8
Codec ID/Info : UTF-8 Plain Text
Bit rate : 49 b/s
Count of elements : 12
Stream size : 420 Bytes (0%)
Title : By-DusIcTv
Language : English
Default : Yes
Forced : No

01-Aate Jaate Haste Gaate [By-DusIcTv].mkv – 146.4 MB

02-Aaya Mausam Dosti Ka 1 [By-DusIcTv].mkv – 318.7 MB

03Aaya Mausam Dosti Ka 2 [By-DusIcTv].mkv – 69.9 MB

04-Kabootar Ja Ja Ja [By-DusIcTv].mkv – 434.8 MB

05-Aaja Shaam Hone Aayee [By-DusIcTv].mkv – 293.4 MB

06-Antakshari [By-DusIcTv].mkv – 721.8 MB

07-Dil Deewana (Female) [By-DusIcTv].mkv – 360.2 MB

08-Mere Rang Mein Rangne Wali [By-DusIcTv].mkv – 586.6 MB

09-Dil Dewana Sad [By-DusIcTv].mkv – 263.8 MB

10-Maine Pyaar Kiya [By-DusIcTv].mkv – 505.9 MB

11-Kahe Toh Sesajan [By-DusIcTv].mkv – 390.9 MB

12-Dil Deewana Love [By-DusIcTv].mkv – 51.5 MB

13-Mere Rang Mein Rangne Wali End Roll [By-DusIcTv].mkv – 59.6 MB

0 0 vote
Article Rating
Subscribe
Notify of
guest
10 Comments
Oldest
Newest Most Voted
Inline Feedbacks
View all comments
lethal111
lethal111
1 year ago

SIR, PLZ POST MR.INDIA 1987 BD50 UNTOUCHED MOVIE NOW!

hugh889
hugh889
1 year ago

plsss give single links too bro

amirsohail
1 year ago

saathi 1991 1080p video songs Karo upload

amirsohail
1 year ago

Karo upload

amirsohail
1 year ago

Replay karo

amirsohail
1 year ago

movie hai song Karo upload HD

amirsohail
1 year ago

I’m waiting songs

amirsohail
1 year ago

Akshay Kumar 2005 bewafa songs 1080p Karo upload 720p hai