Main Tera Hero 2014 Hindi Bluray 1080p x264 DTS 7.1 Channel 11.3Gb

I'm Your Hero (2014) - IMDb

Format : Matroska
Format version : Version 4
File size : 11.6 GiB
Duration : 2 h 5 min
Overall bit rate mode : Variable
Overall bit rate : 13.2 Mb/s
Encoded date : UTC 2020-06-12 07:41:25
Writing application : mkvmerge v47.0.0 (‘Black Flag’) 64-bit
Writing library : libebml v1.3.10 + libmatroska v1.5.2

Video
ID : 1
Format : AVC
Format/Info : Advanced Video Codec
Format profile : [email protected]
Format settings : CABAC / 5 Ref Frames
Format settings, CABAC : Yes
Format settings, Reference frames : 5 frames
Codec ID : V_MPEG4/ISO/AVC
Duration : 2 h 5 min
Bit rate : 10.3 Mb/s
Width : 1 920 pixels
Height : 816 pixels
Display aspect ratio : 2.35:1
Frame rate mode : Constant
Frame rate : 24.000 FPS
Color space : YUV
Chroma subsampling : 4:2:0
Bit depth : 8 bits
Scan type : Progressive
Bits/(Pixel*Frame) : 0.275
Stream size : 9.06 GiB (78%)
Language : English
Default : Yes
Forced : No
Color range : Limited
Color primaries : BT.709
Transfer characteristics : BT.709
Matrix coefficients : BT.709

Audio
ID : 2
Format : DTS XLL
Format/Info : Digital Theater Systems
Commercial name : DTS-HD Master Audio
Codec ID : A_DTS
Duration : 2 h 5 min
Bit rate mode : Variable
Bit rate : 2 888 kb/s
Channel(s) : 6 channels
Channel layout : C L R Ls Rs LFE
Sampling rate : 48.0 kHz
Frame rate : 93.750 FPS (512 SPF)
Bit depth : 24 bits
Compression mode : Lossless
Delay relative to video : 10 ms
Stream size : 2.53 GiB (22%)
Language : Hindi
Default : No
Forced : No

Text
ID : 3
Format : PGS
Muxing mode : zlib
Codec ID : S_HDMV/PGS
Codec ID/Info : Picture based subtitle format used on BDs/HD-DVDs
Duration : 2 h 3 min
Bit rate : 40.3 kb/s
Count of elements : 4387
Stream size : 35.5 MiB (0%)
Language : English
Default : No
Forced : No

Menu
00:00:00.000 : en:Chapter 1
00:02:19.083 : en:Chapter 2
00:03:46.958 : en:Chapter 3
00:06:59.167 : en:Chapter 4
00:12:57.292 : en:Chapter 5
00:16:46.333 : en:Chapter 6
00:22:07.083 : en:Chapter 7
00:25:59.542 : en:Chapter 8
00:32:27.000 : en:Chapter 9
00:37:35.417 : en:Chapter 10
00:40:33.417 : en:Chapter 11
00:45:00.417 : en:Chapter 12
00:50:42.292 : en:Chapter 13
00:55:54.917 : en:Chapter 14
01:04:50.833 : en:Chapter 15
01:10:33.417 : en:Chapter 16
01:15:26.583 : en:Chapter 17
01:23:14.167 : en:Chapter 18
01:27:05.667 : en:Chapter 19
01:30:53.708 : en:Chapter 20
01:36:27.000 : en:Chapter 21
01:41:05.208 : en:Chapter 22
01:43:43.875 : en:Chapter 23
01:48:08.750 : en:Chapter 24
01:51:53.375 : en:Chapter 25
01:59:32.667 : en:Chapter 26
02:03:18.708 : en:Chapter 27


vlcsnap-2020-06-12-05h41m21s825vlcsnap-2020-06-12-05h41m26s016vlcsnap-2020-06-12-05h41m33s745vlcsnap-2020-06-12-05h41m45s173vlcsnap-2020-06-12-05h41m53s730vlcsnap-2020-06-12-05h41m57s493vlcsnap-2020-06-12-05h42m04s303vlcsnap-2020-06-12-05h42m10s771vlcsnap-2020-06-12-05h42m24s896vlcsnap-2020-06-12-05h42m30s887
Gdrive Single Link+Download
https://bit.ly/2AYnFx8

PandaFiles Single Link+Download
https://bit.ly/2YoHjdA

0 0 vote
Article Rating
Subscribe
Notify of
guest
0 Comments
Inline Feedbacks
View all comments