Main Prem Ki Diwani Hoon (2003) (MUSIC VIDEOS ALBUM) 1080p WebHD AVC DDP 2.0 By-DusIcTv

Main Prem Ki Diwani Hoon (2003) (MUSIC VIDEOS ALBUM) 1080p WebHD AVC DDP 2.0 By-DusIcTv

xxxxxxxxxxxxxxxxxxxxxxxxxxxxxxxxxxxxxxxxxxxxxxxxxxxxxxxxxxxxxxxxxxxxxxxxxxxxxxxxxxxxxxxxxxxxxxxxxxx
Main Prem Ki Diwani Hoon (2003) (MUSIC VIDEOS ALBUM) 1080p WebHD AVC DDP 2.0 By-DusIcTv
xxxxxxxxxxxxxxxxxxxxxxxxxxxxxxxxxxxxxxxxxxxxxxxxxxxxxxxxxxxxxxxxxxxxxxxxxxxxxxxxxxxxxxxxxxxxxxxxxxx

:details:
Format : Matroska
Format version : Version 4
File size : 3.58 GB
Overall bit rate : 6 342 kb/s
Writing application : mkvmerge v36.0.0 (‘Is That Jazz?’) 32-bit
Writing : library : libebml v1.3.9 + libmatroska v1.5.2

Video
ID : 1
Format : AVC
Format/Info : Advanced Video Codec
Format profile : [email protected]
Format settings : CABAC / 4 Ref Frames
Format settings, CABAC : Yes
Format settings, Reference frames : 4 frames
Codec ID : V_MPEG4/ISO/AVC
Bit rate : 6 117 kb/s
Width : 1920 pixels
Height : 816 pixels
Display aspect ratio : 2.35:1
Frame rate mode : Constant
Frame rate : 24.000 FPS
Color space : YUV
Chroma subsampling : 4:2:0
Bit depth : 8 bits
Scan type : Progressive
Bits/(Pixel*Frame) : 0.163
Stream size : 130 MiB (96%)
Default : Yes
Forced : No
Color range : Limited
Color primaries : BT.709
Transfer characteristics : BT.709
Matrix coefficients : BT.709

Audio
ID : 3
Format : E-AC-3
Format/Info : Enhanced AC-3
Commercial name : Dolby Digital Plus
Codec ID : A_EAC3
Bit rate mode : Constant
Bit rate : 224 kb/s
Channel(s) : 2 channels
Channel layout : L R
Sampling rate : 48.0 kHz
Frame rate : 31.250 FPS (1536 SPF)
Compression mode : Lossy
Delay relative to video : 27 ms
Stream size : 4.76 MiB (4%)
Service kind : Complete Main
Default : Yes
Forced : No

Text
ID : 2
Format : UTF-8
Codec ID : S_TEXT/UTF8
Codec ID/Info : UTF-8 Plain Text
Bit rate : 41 b/s
Count of elements : 22
Stream size : 688 Bytes (0%)
Language : English
Default : Yes
Forced : No

:screens:






:download2:
01-Papa Ki Pari [By-DusIcTv].mkv   383.76 MB

https://thefileslocker.com/3eksqg87yljj.html

02-Bhatke Panchhi [By-DusIcTv].mkv   134.85 MB

https://thefileslocker.com/2pqietrimebn.html

03-Sanjana I Love You [By-DusIcTv].mkv   423.45 MB

https://thefileslocker.com/7wky5j4wwh9a.html

04-Chali Aayee [By-DusIcTv].mkv   449.10 MB

https://thefileslocker.com/74ulinlzh4xz.html

05-Sanjana I Love You [By-DusIcTv].mkv   371.62 MB

https://thefileslocker.com/u569csmbxlhp.html

06-O Ajnabi [By-DusIcTv].mkv   341.09 MB

https://thefileslocker.com/946fik37cxoy.html

07-Bani Bani [By-DusIcTv].mkv   486.55 MB

https://thefileslocker.com/x0odigzh6ixr.html

08-Aur Mohabbat Hai [By-DusIcTv].mkv   373.81 MB

https://thefileslocker.com/htkorpk7a3im.html

09-Kasam Ki Kasam [By-DusIcTv].mkv   284.78 MB

https://thefileslocker.com/8dlps6rrggkg.html

10-O Ajnabi (Sad) [By-DusIcTv].mkv   324.11 MB

https://thefileslocker.com/vopzq7dgi9xh.html

11-Bani Bani (End Roll) [By-DusIcTv].mkv   99.92 MB

https://thefileslocker.com/6azg3rv50tky.html

https://thefileslocker.com/cj3sxkmd2ew4.html
https://uploader.link/f/iwlbtt-aodqtn68cvh3o
https://uptobox.com/w22115smwerc

0 0 vote
Article Rating
Subscribe
Notify of
guest
1 Comment
Oldest
Newest Most Voted
Inline Feedbacks
View all comments
sameer tagodia
sameer tagodia
1 year ago

Thanks bro. Also please upload imran hashmi’s the train, awarapan in highest quality available.