Mahabharat (1988) Complete – Hindi – 2.0 – Esub – 18Gb

BR Chopra Mahabharat Episode 53 Free Download Now (1988) hindi Tv ...

Movie Title :- Mahabharat  (1988)

Genre :- History/Drama

Format : AVI
Format/Info : Audio Video Interleave
File size : 203 MiB
Duration : 43 min 23 s
Overall bit rate mode : Variable
Overall bit rate : 653 kb/s
Writing application : VirtualDubMod 1.5.1.1a (build 1639/release)
Writing library : VirtualDubMod build 1639/release

Video
ID : 0
Format : MPEG-4 Visual
Format settings, BVOP : 1
Format settings, QPel : No
Format settings, GMC : No warppoints
Format settings, Matrix : Default (H.263)
Muxing mode : Packed bitstream
Codec ID : DX50
Codec ID/Hint : DivX 5
Duration : 43 min 23 s
Bit rate : 507 kb/s
Nominal bit rate : 4 000 kb/s
Width : 640 pixels
Height : 352 pixels
Display aspect ratio : 16:9
Frame rate : 29.970 (30000/1001) FPS
Color space : YUV
Chroma subsampling : 4:2:0
Bit depth : 8 bits
Scan type : Progressive
Compression mode : Lossy
Bits/(Pixel*Frame) : 0.075
Stream size : 157 MiB (78%)
Writing library : DivX 5.0.5 (UTC 2003-04-24)

Audio
ID : 1
Format : MPEG Audio
Format version : Version 1
Format profile : Layer 3
Mode : Joint stereo
Mode extension : MS Stereo
Codec ID : 55
Codec ID/Hint : MP3
Duration : 43 min 23 s
Bit rate mode : Variable
Bit rate : 128 kb/s
Channel(s) : 2 channels
Sampling rate : 48.0 kHz
Compression mode : Lossy
Stream size : 41.1 MiB (20%)
Alignment : Aligned on interleaves
Interleave, duration : 24 ms (0.72 video frame)
Interleave, preload duration : 461 ms
Writing library : LAME3.93
Encoding settings : -m j -V 4 -q 2 -lowpass 17.5 –abr 128

091bbee3d323b7b97c0000b0e8bb1584.png
2293188fa2b86fd275f847a24eaff8dd.png
1b0243c57e9f87627a53963147591238.png
bd4d4d1cf78a0859e861b99c5e5045ba.png
77cca382e709ec13e37a0dfd50fbc23f.png
342b4903102d8ca70e7983e5e9927635.png
f153ea7143beca47ff7b20dba2aa8491.png
c52fe0b543610afbbf80e4d554545438.png
25ce81b58fec1d457de9ba81af7d64a7.png
93f0e2d3b22ee7daa8997a690d0fc01d.png

Complete Zip [GDrive] (18 Gb)

Single Download (ThefilesLocker) (200Mb/Ep)

0 0 vote
Article Rating
Subscribe
Notify of
guest
0 Comments
Inline Feedbacks
View all comments