Magadheera (2009) (MUSIC VIDEOS ALBUM) Telugu 1080p Blu-Ray Untouched BD50 LPCM 5.1 By-DusIcTv

Media info
General
ID : 1 (0x1)
Format : BDAV
Format : M2ts
Format/Info : Blu-ray Video
File size : 8.15 GB
Overall bit rate mode : Variable
Overall bit rate : 34.5 Mb/s
Maximum Overall bit rate : 35.5 Mb/s

Video
ID : 4113 (0x1011)
Menu ID : 1 (0x1)
Format : AVC
Format/Info : Advanced Video Codec
Format profile : [email protected]
Format settings : CABAC / 4 Ref Frames
Format settings, CABAC : Yes
Format settings, Reference frames : 4 frames
Codec ID : 27
Bit rate mode : Variable
Bit rate : 25.8 Mb/s
Maximum bit rate : 35.0 Mb/s
Width : 1 920 pixels
Height : 1 080 pixels
Display aspect ratio : 16:9
Frame rate : 24.000 FPS
Color space : YUV
Chroma subsampling : 4:2:0
Bit depth : 8 bits
Scan type : Progressive
Bits/(Pixel*Frame) : 0.518
Stream size : 691 MiB (74%)
Color range : Limited
Color primaries : BT.709
Transfer characteristics : BT.709
Matrix coefficients : BT.709

Audio #1
ID : 4352 (0x1100)
Menu ID : 1 (0x1)
Format : PCM
Format settings : Big / Signed
Muxing mode : Blu-ray
Codec ID : 128
Bit rate mode : Constant
Bit rate : 6 912 kb/s
Channel(s) : 6 channels
Channel layout : L R C Ls Rs LFE
Sampling rate : 48.0 kHz
Bit depth : 24 bits
Delay relative to video : -33 ms
Stream size : 186 MiB (20%)

Audio #2
ID : 4353 (0x1101)
Menu ID : 1 (0x1)
Format : AC-3
Format/Info : Audio Coding 3
Commercial name : Dolby Digital
Codec ID : 129
Bit rate mode : Constant
Bit rate : 448 kb/s
Channel(s) : 6 channels
Channel layout : L R C LFE Ls Rs
Sampling rate : 48.0 kHz
Frame rate : 31.250 FPS (1536 SPF)
Bit depth : 16 bits
Compression mode : Lossy
Delay relative to video : -31 ms
Stream size : 12.1 MiB (1%)
Service kind : Complete Main

Text
ID : 4608 (0x1200)
Menu ID : 1 (0x1)
Format : PGS
Codec ID : 144
Delay relative to video : 1 s 42 ms


01-Ponnana Kozhi Ponnu [By-DusIcTv].m2ts – 1.71 GB
 https://new.gdtot.com/file/1832896635


02-Pidichirukku [By-DusIcTv].m2ts – 929.81 MB
 https://new.gdtot.com/file/974979195


03-Vandinathai Summa Summa [By-DusIcTv].m2ts – 1.27 GB
 https://new.gdtot.com/file/1359968379


04-Aasai Aasai [By-DusIcTv].m2ts – 1.21 GB
 https://new.gdtot.com/file/1297981563


05-Dheera [By-DusIcTv].m2ts – 522.08 MB
 https://new.gdtot.com/file/547442811


06-Pesavey Pesatha [By-DusIcTv].m2ts – 1.7 GB
 https://new.gdtot.com/file/1825585275


07-Kadha Kadha Kadha Kadha End Roll [By-DusIcTv].m2ts – 879.59 MB
 https://new.gdtot.com/file/922318971


5 1 vote
Article Rating
Subscribe
Notify of
guest
0 Comments
Inline Feedbacks
View all comments