Made in China (2019) (MUSIC VIDEOS ALBUM) 1080p Untouched WebHD AVC DDP 5.1 By-DusIcTv

General
Format : Matroska
Format version : Version 4
File size : 356 MB
Overall bit rate mode : Variable
Overall bit rate : 4 631 kb/s
Encoded date : UTC 2020-01-14 14:53:33
Writing application : mkvmerge v42.0.0 (‘Overtime’) 64-bit
Writing library : libebml v1.3.10 + libmatroska v1.5.2

Video
ID : 1
Format : AVC
Format/Info : Advanced Video Codec
Format profile : [email protected]
Format settings : CABAC / 4 Ref Frames
Format settings, CABAC : Yes
Format settings, Reference frames : 4 frames
Codec ID : V_MPEG4/ISO/AVC
Bit rate mode : Variable
Bit rate : 4 033 kb/s
Maximum bit rate : 20.0 Mb/s
Width : 1 920 pixels
Height : 1 080 pixels
Display aspect ratio : 16:9
Frame rate mode : Constant
Frame rate : 24.000 FPS
Color space : YUV
Chroma subsampling : 4:2:0
Bit depth : 8 bits
Scan type : Progressive
Bits/(Pixel*Frame) : 0.081
Stream size : 93.2 MiB (86%)
Title : By-DusIcTv
Writing library : x264 core 148 r2715 7e75228
Default : Yes
Forced : No

Audio
ID : 2
Format : E-AC-3
Format/Info : Enhanced AC-3
Commercial name : Dolby Digital Plus
Codec ID : A_EAC3
Bit rate mode : Constant
Bit rate : 640 kb/s
Channel(s) : 6 channels
Channel layout : L R C LFE Ls Rs
Sampling rate : 48.0 kHz
Frame rate : 31.250 FPS (1536 SPF)
Compression mode : Lossy
Delay relative to video : 20 ms
Stream size : 14.8 MiB (14%)
Title : By-DusIcTv
Service kind : Complete Main
Default : Yes
Forced : No

Text
ID : 3
Format : UTF-8
Codec ID : S_TEXT/UTF8
Codec ID/Info : UTF-8 Plain Text
Bit rate : 108 b/s
Count of elements : 41
Stream size : 2.58 KiB (0%)
Title : By-DusIcTv
Language : English
Default : No
Forced : No

Zip Download  G- Drive + File Locker 

01-Odhani [By-DusIcTv].mkv – 47.3 MB

02-Valam [By-DusIcTv].mkv – 108.0 MB

03-Sanedo [By-DusIcTv].mkv – 128.4 MB

04-Odhani (End Roll) [By-DusIcTv].mkv – 72.9 MB

0 0 vote
Article Rating
Subscribe
Notify of
guest
3 Comments
Oldest
Newest Most Voted
Inline Feedbacks
View all comments
Dishalover
Dishalover
1 year ago

Plz upload UJDA CHAMAN music video songs 1080p AMZN WEB FHD…..

Roshan S Rana
Roshan S Rana
1 year ago

Please Upload Sahoo Video Song in Hindi 1080p or 4K high resolution