Love Aaaj Kal (2020) | 1080p | 720p |1.1 GB | 500 MB |

395c9944-361e-4c5f-a7e1-828b2a328207.md.

Format : Matroska
Format version : Version 4
File size : 1.0GiB
Duration : 2 h 19 min
Overall bit rate mode : Variable
Overall bit rate : 1 072 kb/s
Writing application : Lavf58.28.101
Writing library : Lavf58.28.101

Video
ID : 1
Format : HEVC
Format/Info : High Efficiency Video Coding
Format profile : [email protected]@Main
Codec ID : V_MPEGH/ISO/HEVC
Duration : 2 h 19 min
Bit rate : 775 kb/s
Width : 1 920 pixels
Height : 816 pixels
Display aspect ratio : 2.35:1
Frame rate mode : Variable
Original frame rate : 24.000 FPS
Color space : YUV
Chroma subsampling : 4:2:0
Bit depth : 8 bits
Stream size : 774 MiB (72%)
Writing library : Lavc58.53.100 libx265
Default : Yes
Forced : No
Color range : Limited

Audio
ID : 2
Format : Vorbis
Format settings, Floor : 1 / 16898
Codec ID : A_VORBIS
Duration : 2 h 19 min
Bit rate mode : Variable
Bit rate : 276 kb/s
Channel(s) : 6 channels
Sampling rate : 48.0 kHz
Compression mode : Lossy
Stream size : 276 MiB (26%)
Writing application : Lavc58.53.100
Writing library : libVorbis (Now 100% fewer shells) (20180316 (Now 100% fewer shells))
Default : Yes
Forced : No

Text #1
ID : 3
Format : ASS
Codec ID : S_TEXT/ASS
Codec ID/Info : Advanced Sub Station Alpha
Duration : 2 h 15 min
Compression mode : Lossless
Writing library : Lavc58.53.100 ssa
Default : No
Forced : No

Text #2
ID : 4
Format : ASS
Codec ID : S_TEXT/ASS
Codec ID/Info : Advanced Sub Station Alpha
Duration : 2 h 15 min
Compression mode : Lossless
Writing library : Lavc58.53.100 ssa
Default : Yes
Forced : Yes

vlcsnap 2020 04 26 07h20m29s822vlcsnap 2020 04 26 07h20m38s871vlcsnap 2020 04 26 07h21m12s678vlcsnap 2020 04 26 07h21m29s405vlcsnap 2020 04 26 07h21m46s486
1080p Single Links (1.1GB)
Gdrive Single Link+Download
https://bit.ly/3aGIRUc
Gofile.io Single Link+Download
https://bit.ly/2VH7hZH
720p Single Links(500Mb)
Gdrive Single Link+download
https://bit.ly/356sork
Gofile.io single link+download
https://bit.ly/2W4jxm3
0 0 vote
Article Rating
Subscribe
Notify of
guest
0 Comments
Inline Feedbacks
View all comments