Lost In Space (2018) S01 1080p Untouched WEB-DL x264 {Hindi-Eng DD 5.1} ESub By~Hammer~ | G- Drive |

Lost In Space (2018) S01 1080p Untouched WEB-DL x264 {Hindi-Eng DD 5.1} ESub By~Hammer~

General
Format                                   : Matroska
Format version                           : Version 4
File size                                : 2.05 GiB
Duration                                 : 1 h 3 min
Overall bit rate mode                    : Variable
Overall bit rate                         : 4 604 kb/s
Movie name                               : Lost In Space (2018) S01 E01 1080p Untouched  WEB-DL x264 {Hindi-Eng DD 5.1} ESub By~Hammer~
Bit rate mode                            : Variable
Bit rate                                 : 3 650 kb/s
Maximum bit rate                         : 5 475 kb/s
Width                                    : 1 920 pixels
Height                                   : 1 080 pixels
Display aspect ratio                     : 16:9
Frame rate mode                          : Constant
Frame rate                               : 23.976 (24000/1001) FPS
Title                                    : By~Hammer~
Default                                  : Yes
Forced                                   : No

Audio #1
ID                                       : 4
Format                                   : AC-3
Format/Info                              : Audio Coding 3
Commercial name                          : Dolby Digital
Codec ID                                 : A_AC3
Duration                                 : 1 h 3 min
Bit rate mode                            : Constant
Bit rate                                 : 640 kb/s
Channel(s)                               : 6 channels
Channel layout                           : L R C LFE Ls Rs
Sampling rate                            : 48.0 kHz
Frame rate                               : 31.250 FPS (1536 SPF)
Compression mode                         : Lossy
Stream size                              : 292 MiB (14%)
Title                                    : Hindi DD 5.1 640 kbps
Language                                 : Hindi
Service kind                             : Complete Main
Default                                  : Yes
Forced                                   : Yes

Audio #2
Format                                   : E-AC-3 JOC
Format/Info                              : Enhanced AC-3 with Joint Object Coding
Commercial name                          : Dolby Digital Plus with Dolby Atmos
Codec ID                                 : A_EAC3
Duration                                 : 1 h 2 min
Bit rate mode                            : Constant
Bit rate                                 : 448 kb/s
Channel(s)                               : 6 channels
Channel layout                           : L R C LFE Ls Rs
Sampling rate                            : 48.0 kHz
Frame rate                               : 31.250 FPS (1536 SPF)
Compression mode                         : Lossy
Stream size                              : 201 MiB (10%)
Title                                    : English
Language                                 : English
Service kind                             : Complete Main
Default                                  : No
Forced                                   : No

Text
Format                                   : UTF-8
Codec ID                                 : S_TEXT/UTF8
Codec ID/Info                            : UTF-8 Plain Text
Duration                                 : 1 h 0 min
Bit rate                                 : 54 b/s
Count of elements                        : 805
Stream size                              : 24.3 KiB (0%)
Title                                    : English SDH
Language                                 : English
Default                                  : No
Forced                                   : No

G- Drive Download

Lost In Space (2018) S01 E01 1080p Untouched WEB-DL x264 {Hindi-Eng DD 5.1} ESub By~Hammer~.mkv
Lost In Space (2018) S01 E02 1080p Untouched WEB-DL x264 {Hindi-Eng DD 5.1} ESub By~Hammer~.mkv
Lost In Space (2018) S01 E03 1080p Untouched WEB-DL x264 {Hindi-Eng DD 5.1} ESub By~Hammer~.mkv
Lost In Space (2018) S01 E04 1080p Untouched WEB-DL x264 {Hindi-Eng DD 5.1} ESub By~Hammer~.mkv
Lost In Space (2018) S01 E05 1080p Untouched WEB-DL x264 {Hindi-Eng DD 5.1} ESub By~Hammer~.mkv
Lost In Space (2018) S01 E06 1080p Untouched WEB-DL x264 {Hindi-Eng DD 5.1} ESub By~Hammer~.mkv
Lost In Space (2018) S01 E07 1080p Untouched WEB-DL x264 {Hindi-Eng DD 5.1} ESub By~Hammer~.mkv
Lost In Space (2018) S01 E08 1080p Untouched WEB-DL x264 {Hindi-Eng DD 5.1} ESub By~Hammer~.mkv
Lost In Space (2018) S01 E09 1080p Untouched WEB-DL x264 {Hindi-Eng DD 5.1} ESub By~Hammer~.mkv
Lost In Space (2018) S01 E10 1080p Untouched WEB-DL x264 {Hindi-Eng DD 5.1} ESub By~Hammer~.mkv

https://sharer.pw/file/w5-KfR0RpDw

Lost In Space (2018) S01 E01 1080p Untouched WEB-DL x264 {Hindi-Eng DD 5.1} ESub By~Hammer~.mkv – 2.1 GB

Lost In Space (2018) S01 E02 1080p Untouched WEB-DL x264 {Hindi-Eng DD 5.1} ESub By~Hammer~.mkv – 2.1 GB

Lost In Space (2018) S01 E03 1080p Untouched WEB-DL x264 {Hindi-Eng DD 5.1} ESub By~Hammer~.mkv – 1.3 GB

Lost In Space (2018) S01 E04 1080p Untouched WEB-DL x264 {Hindi-Eng DD 5.1} ESub By~Hammer~.mkv – 2.2 GB

Lost In Space (2018) S01 E05 1080p Untouched WEB-DL x264 {Hindi-Eng DD 5.1} ESub By~Hammer~.mkv – 1.3 GB

Lost In Space (2018) S01 E06 1080p Untouched WEB-DL x264 {Hindi-Eng DD 5.1} ESub By~Hammer~.mkv – 2.0 GB

Lost In Space (2018) S01 E07 1080p Untouched WEB-DL x264 {Hindi-Eng DD 5.1} ESub By~Hammer~.mkv – 1.6 GB

Lost In Space (2018) S01 E08 1080p Untouched WEB-DL x264 {Hindi-Eng DD 5.1} ESub By~Hammer~.mkv – 1.4 GB

Lost In Space (2018) S01 E09 1080p Untouched WEB-DL x264 {Hindi-Eng DD 5.1} ESub By~Hammer~.mkv – 1.4 GB

Lost In Space (2018) S01 E10 1080p Untouched WEB-DL x264 {Hindi-Eng DD 5.1} ESub By~Hammer~.mkv – 1.3 GB

0 0 vote
Article Rating
Subscribe
Notify of
guest
1 Comment
Oldest
Newest Most Voted
Inline Feedbacks
View all comments
Mehedi Hasan
Mehedi Hasan
1 year ago

Please More Vol. Heart Touching Music Video Collection 1080p HDTV Untouched x264 – Hon3y. Upload Please