Little Women (2019)1080p BDRip – Original Auds [Hindi + Eng] 1.2GB

257590_front.md.jpg

Format : Matroska
Format version : Version 4
File size : 1.46 GiB
Duration : 2 h 14 min
Overall bit rate : 1 551 kb/s
Movie name : Little.Women.2019.1080p.BrRip.x265.6CH.HEVCBay.com.mkv
Encoded date : UTC 2020-04-26 13:11:50
Writing application : mkvmerge v37.0.0 (‘Leave It’) 64-bit
Writing library : libebml v1.3.9 + libmatroska v1.5.2 / Lavf58.29.100

Video
ID : 1
Format : HEVC
Format/Info : High Efficiency Video Coding
Format profile : [email protected]@Main
Codec ID : V_MPEGH/ISO/HEVC
Duration : 2 h 14 min
Bit rate : 973 kb/s
Width : 1 920 pixels
Height : 1 040 pixels
Display aspect ratio : 1.85:1
Frame rate mode : Constant
Frame rate : 23.976 (24000/1001) FPS
Color space : YUV
Chroma subsampling : 4:2:0
Bit depth : 8 bits
Bits/(Pixel*Frame) : 0.020
Stream size : 939 MiB (63%)
Writing library : Lavc58.54.100 libx265
Language : English
Default : Yes
Forced : No
Color range : Limited

Audio #1
ID : 2
Format : AAC LC SBR
Format/Info : Advanced Audio Codec Low Complexity with Spectral Band Replication
Commercial name : HE-AAC
Format settings : NBC
Codec ID : A_AAC-5
Duration : 2 h 14 min
Bit rate : 192 kb/s
Channel(s) : 6 channels
Channel layout : C L R Ls Rs LFE
Sampling rate : 48.0 kHz
Frame rate : 23.438 FPS (2048 SPF)
Compression mode : Lossy
Delay relative to video : -105 ms
Stream size : 185 MiB (12%)
Title : 5.1CH
Writing library : Lavc58.54.100 libfdk_aac
Language : English
Default : Yes
Forced : No

Audio #2
ID : 4
Format : AAC LC
Format/Info : Advanced Audio Codec Low Complexity
Codec ID : A_AAC-2
Duration : 2 h 14 min
Bit rate : 384 kb/s
Channel(s) : 6 channels
Channel layout : C L R Ls Rs LFE
Sampling rate : 48.0 kHz
Frame rate : 46.875 FPS (1024 SPF)
Compression mode : Lossy
Delay relative to video : -105 ms
Stream size : 370 MiB (25%)
Language : Hindi
Default : No
Forced : No

Text
ID : 3
Format : UTF-8
Codec ID : S_TEXT/UTF8
Codec ID/Info : UTF-8 Plain Text
Duration : 2 h 5 min
Bit rate : 69 b/s
Count of elements : 1682
Stream size : 64.0 KiB (0%)
Language : English
Default : No
Forced : No

Menu
00:00:00.000 : en:Chapter 01
00:06:02.612 : en:Chapter 02
00:12:05.600 : en:Chapter 03
00:24:24.630 : en:Chapter 04
00:30:18.066 : en:Chapter 05
00:38:39.275 : en:Chapter 06
00:47:06.240 : en:Chapter 07
00:57:35.661 : en:Chapter 08
01:07:18.117 : en:Chapter 09
01:16:24.538 : en:Chapter 10
01:20:07.136 : en:Chapter 11
01:25:45.349 : en:Chapter 12
01:29:35.328 : en:Chapter 13
01:39:53.696 : en:Chapter 14
01:49:37.488 : en:Chapter 15
02:06:21.449 : en:Chapter 16
vlcsnap-2020-04-26-18h58m53s438vlcsnap-2020-04-26-18h59m40s874vlcsnap-2020-04-26-18h59m45s443vlcsnap-2020-04-26-19h00m02s809vlcsnap-2020-04-26-18h59m55s934
Gdrive Single Link+Download
https://bit.ly/3bEzkP9

Gofile.io Single Link+Download
https://bit.ly/2KznzNR

0 0 vote
Article Rating
Subscribe
Notify of
guest
0 Comments
Inline Feedbacks
View all comments