Like.a.Boss.2020.1080p.10bit.BluRay.6CH.x265.HEVC-PSA Hin-Eng 1.2Gb

Amazon.com: Like a Boss [Blu-ray]: Rose Byrne, Salma Hayek ...

Format : Matroska
Format version : Version 4
File size : 1.36 GiB
Duration : 1 h 23 min
Overall bit rate : 2 337 kb/s
Writing application : mkvmerge v47.0.0 (‘Black Flag’) 64-bit
Writing library : libebml v1.3.10 + libmatroska v1.5.2

Video
ID : 1
Format : HEVC
Format/Info : High Efficiency Video Coding
Format profile : Main [email protected]@Main
Codec ID : V_MPEGH/ISO/HEVC
Duration : 1 h 23 min
Bit rate : 1 762 kb/s
Width : 1 920 pixels
Height : 800 pixels
Display aspect ratio : 2.40:1
Frame rate mode : Constant
Frame rate : 23.976 (24000/1001) FPS
Color space : YUV
Chroma subsampling : 4:2:0
Bit depth : 10 bits
Bits/(Pixel*Frame) : 0.048
Stream size : 1.03 GiB (75%)
Default : Yes
Forced : No

Audio #1
ID : 2
Format : AAC LC SBR
Format/Info : Advanced Audio Codec Low Complexity with Spectral Band Replication
Commercial name : HE-AAC
Format settings : Explicit
Codec ID : A_AAC-2
Duration : 1 h 23 min
Bit rate : 188 kb/s
Channel(s) : 6 channels
Channel layout : C L R Ls Rs LFE
Sampling rate : 48.0 kHz
Frame rate : 23.438 FPS (2048 SPF)
Compression mode : Lossy
Delay relative to video : 31 ms
Stream size : 112 MiB (8%)
Language : English
Default : Yes
Forced : No

Audio #2
ID : 5
Format : AC-3
Format/Info : Audio Coding 3
Commercial name : Dolby Digital
Codec ID : A_AC3
Duration : 1 h 23 min
Bit rate mode : Constant
Bit rate : 384 kb/s
Channel(s) : 6 channels
Channel layout : L R C LFE Ls Rs
Sampling rate : 48.0 kHz
Frame rate : 31.250 FPS (1536 SPF)
Compression mode : Lossy
Stream size : 229 MiB (16%)
Title : www.1TamilMV.in – [DD5.1 – 384Kbps]
Language : Hindi
Service kind : Complete Main
Default : No
Forced : No

Text #1
ID : 3
Format : UTF-8
Codec ID : S_TEXT/UTF8
Codec ID/Info : UTF-8 Plain Text
Duration : 1 h 21 min
Bit rate : 96 b/s
Count of elements : 1592
Stream size : 57.3 KiB (0%)
Language : English
Default : Yes
Forced : No

Text #2
ID : 4
Format : UTF-8
Codec ID : S_TEXT/UTF8
Codec ID/Info : UTF-8 Plain Text
Duration : 1 h 20 min
Bit rate : 102 b/s
Count of elements : 1711
Stream size : 60.5 KiB (0%)
Title : SDH
Language : English
Default : No
Forced : No

Menu
00:00:00.000 : en:Chapter 01
00:05:31.998 : en:Chapter 02
00:14:59.690 : en:Chapter 03
00:23:37.833 : en:Chapter 04
00:30:46.886 : en:Chapter 05
00:39:26.989 : en:Chapter 06
00:49:39.768 : en:Chapter 07
01:00:43.431 : en:Chapter 08
01:10:10.456 : en:Chapter 09
01:19:22.048 : en:Chapter 10


vlcsnap-2020-06-04-19h09m38s037vlcsnap-2020-06-04-19h09m43s869vlcsnap-2020-06-04-19h09m55s601vlcsnap-2020-06-04-19h10m03s831vlcsnap-2020-06-04-19h10m15s174vlcsnap-2020-06-04-19h10m25s800
Gdrive Single Link+Download
https://bit.ly/2Xx7D67

Zupload.me(use vpn download with idm)
https://bit.ly/3eVaNXh

0 0 vote
Article Rating
Subscribe
Notify of
guest
0 Comments
Inline Feedbacks
View all comments