Lamhe (1991) (MUSIC VIDEO ALBUM) 1080p BluRay Rip x264 DTS-HDMA 5.1 ESuBS By-DusIcTv

Media info
General
Format : Matroska
Format version : Version 4
File size : 5.45 GB
Overall bit rate mode : Variable
Overall bit rate : 14.8 Mb/s
Writing application : mkvmerge v35.0.0 (‘All The Love In The World’) 64-bit
Writing library : libebml v1.3.9 + libmatroska v1.5.2

Video
ID : 1
Format : AVC
Format/Info : Advanced Video Codec
Format profile : [email protected]
Format settings : CABAC / 4 Ref Frames
Format settings, CABAC : Yes
Format settings, Reference fra : 4 frames
Codec ID : V_MPEG4/ISO/AVC
Bit rate : 10.5 Mb/s
Width : 1920 pixels
Height : 816 pixels
Display aspect ratio : 2.35:1
Frame rate mode : Constant
Frame rate : 24.000 FPS
Color space : YUV
Chroma subsampling : 4:2:0
Bit depth : 8 bits
Scan type : Progressive
Bits/(Pixel*Frame) : 0.279
Stream size : 363 MiB (71%)
Default : Yes
Forced : No

Audio
ID : 2
Format : DTS XLL
Format/Info : Digital Theater Systems
Commercial name : DTS-HD Master Audio
Codec ID : A_DTS
Bit rate mode : Variable
Bit rate : 4317 kb/s
Channel(s) : 6 channels
Channel layout : C L R Ls Rs LFE
Sampling rate : 48.0 kHz
Frame rate : 93.750 FPS (512 SPF)
Bit depth : 24 bits
Compression mode : Lossless
Delay relative to video : 3 ms
Stream size : 150 MiB (29%)
Language : Hindi
Default : Yes
Forced : No

Text #1
ID : 3
Format : PGS
Muxing mode : zlib
Codec ID : S_HDMV/PGS
Codec ID/Info : Picture based subtitle format used on BDs/HD-DVDs
Bit rate : 29.4 kb/s
Count of elements : 115
Stream size : 1 006 KiB (0%)
Language : English
Default : No
Forced : No

Text #2
ID : 4
Format : PGS
Muxing mode : zlib
Codec ID : S_HDMV/PGS
Codec ID/Info : Picture based subtitle format used on BDs/HD-DVDs
Bit rate : 17.0 kb/s
Count of elements : 115
Stream size : 584 KiB (0%)
Language : Arabic
Default : No
Forced : No

G- Drive Download Link 

01-Yeh Lamhe 1 [By-DusIcTv].mkv – 124.2 MB

02-Meha Re Megha [By-DusIcTv].mkv – 513.4 MB

03-Yeh Lamhe 2 [By-DusIcTv].mkv – 212.9 MB

04-Yeh Lamhe 3 [By-DusIcTv].mkv – 42.5 MB

05-Mohe Chhodo Naa [By-DusIcTv].mkv – 351.3 MB

06-Morni Baagha Maa 1 [By-DusIcTv].mkv – 695.9 MB

07-Yeh Lamhe 4 [By-DusIcTv].mkv – 100.8 MB

08-Yaad Nahin Bhool Gaya [By-DusIcTv].mkv – 473.4 MB

09-Morni Baagha Maa 2 [By-DusIcTv].mkv – 112.5 MB

10-Gudiya Rani [By-DusIcTv].mkv – 214.0 MB

11-Parody (Mix Songs) [By-DusIcTv].mkv – 1.1 GB

12-Kabhi Main Kahoon [By-DusIcTv].mkv – 781.2 MB

13-Dance [By-DusIcTv].mkv – 219.9 MB

14-Meri Bindiya [By-DusIcTv].mkv – 551.5 MB

15-Kabhi Main Kahoon (End Roll) [By-DusIcTv].mkv – 75.5 MB

0 0 vote
Article Rating
Subscribe
Notify of
guest
2 Comments
Oldest
Newest Most Voted
Inline Feedbacks
View all comments
Tariq 806
Tariq 806
1 year ago

Dear Sir, Who listens to such old songs? Upload songs after the 2000s