Lamhe (1991) 1080p x265 10-Bit BluRay DTS 5.1 – DB9 8.5GB


Format                                   : Matroska
Format version                           : Version 2
File size                                : 8.58 GiB
Duration                                 : 3 h 7 min
Overall bit rate mode                    : Variable
Overall bit rate                         : 6 543 kb/s
Movie name                               : Lamhe.1991.1080p.BluRay.Remux.AVC.DTSHD-MA.5.1-DTOne
Encoded date                             : UTC 2020-03-27 15:46:49
Writing application                      : DVDFab 11.0.6.5
Writing library                          : libebml v1.3.4 + libmatroska v1.4.5

Video
ID                                       : 1
Format                                   : HEVC
Format/Info                              : High Efficiency Video Coding
Format profile                           : Main [email protected]@Main
Codec ID                                 : V_MPEGH/ISO/HEVC
Duration                                 : 3 h 7 min
Bit rate                                 : 3 815 kb/s
Width                                    : 1 920 pixels
Height                                   : 816 pixels
Display aspect ratio                     : 2.35:1
Frame rate mode                          : Constant
Frame rate                               : 24.000 FPS
Color space                              : YUV
Chroma subsampling                       : 4:2:0
Bit depth                                : 10 bits
Bits/(Pixel*Frame)                       : 0.101
Stream size                              : 5.00 GiB (58%)
Default                                  : Yes
Forced                                   : No
Color range                              : Limited
Color primaries                          : BT.709
Transfer characteristics                 : BT.709
Matrix coefficients                      : BT.709

Audio
ID                                       : 2
Format                                   : DTS XLL
Format/Info                              : Digital Theater Systems
Commercial name                          : DTS-HD Master Audio
Codec ID                                 : A_DTS
Duration                                 : 3 h 7 min
Bit rate mode                            : Variable
Bit rate                                 : 2 727 kb/s
Channel(s)                               : 6 channels
Channel layout                           : C L R Ls Rs LFE
Sampling rate                            : 48.0 kHz
Frame rate                               : 93.750 FPS (512 SPF)
Bit depth                                : 16 bits
Compression mode                         : Lossless
Stream size                              : 3.57 GiB (42%)
Language                                 : Hindi
Default                                  : Yes

gdrive single link+ Download

https://bit.ly/39uh219

7-up.net single link+ Download

https://bit.ly/3bCNsrD

0 0 vote
Article Rating
Subscribe
Notify of
guest
1 Comment
Oldest
Newest Most Voted
Inline Feedbacks
View all comments
Himanshu Joshi
Himanshu Joshi
1 year ago

Friend please upload Sunday 2008 bollywood movie in your print edition please upload fast Sunday bollywood movie 2008