Laaga Chunari Mein Daag (2007) Hindi 1080p Untouched WebHD AVC DDP 5.1 {Music Video}

Format : Matroska
Format version : Version 4
File size : 1.68 GB
Overall bit rate : 9 916 kb/s

Video
ID : 1
Format : AVC
Format/Info : Advanced Video Codec
Format profile : [email protected]
Format settings : CABAC / 4 Ref Frames
Format settings, CABAC : Yes
Format settings, ReFrames : 4 frames
Codec ID : V_MPEG4/ISO/AVC
Bit rate : 9 347 kb/s
Width : 1 920 pixels
Height : 1 080 pixels
Display aspect ratio : 16:9
Frame rate mode : Constant
Frame rate : 23.976 (24000/1001) FPS
Color space : YUV
Chroma subsampling : 4:2:0
Bit depth : 8 bits
Scan type : Progressive
Bits/(Pixel*Frame) : 0.188
Stream size : 359 MiB (94%)
Default : Yes
Forced : No
Color range : Limited
Color primaries : BT.709
Transfer characteristics : BT.709
Matrix coefficients : BT.709

Audio
ID : 2
Format : E-AC-3
Format/Info : Enhanced AC-3
Commercial name : Dolby Digital Plus
Codec ID : A_EAC3
Bit rate mode : Constant
Bit rate : 640 kb/s
Channel(s) : 6 channels
Channel layout : L R C LFE Ls Rs
Sampling rate : 48.0 kHz
Frame rate : 31.250 FPS (1536 SPF)
Compression mode : Lossy
Delay relative to video : 22 ms
Stream size : 24.6 MiB (6%)
Title : Hindi
Language : Hindi
Service kind : Complete Main
Default : No
Forced : No

Download {Mediafire}

01.Hum To Aise Hain.mkv – 383.2 MB

02.Zara Gungunalein Chalo.mkv – 290.2 MB

03.Chunari Mein Daag.mkv – 247.3 MB

04.Ik Teekhi Teekhi Si Ladki.mkv – 242.6 MB

05.Kachchi Kaliyaan.mkv – 430.4 MB

06.Hum To Aise Hain (End).mkv – 133.6 MB

0 0 vote
Article Rating
Subscribe
Notify of
guest
0 Comments
Inline Feedbacks
View all comments