Kyon Ki (2005) 1080p Web-Rip H264 DTS-HD 5.1 By-DusIcTv- 16Gb

Format : Matroska
Format version : Version 4
File size : 15.9 GiB
Duration : 2 h 29 min
Overall bit rate mode : Variable
Overall bit rate : 15.2 Mb/s

Video
ID : 1
Format : AVC
Format/Info : Advanced Video Codec
Format profile : [email protected]
Format settings : CABAC / 4 Ref Frames
Format settings, CABAC : Yes
Format settings, Reference frames : 4 frames
Codec ID : V_MPEG4/ISO/AVC
Duration : 2 h 29 min
Bit rate : 13.1 Mb/s
Width : 1 920 pixels
Height : 1 080 pixels
Display aspect ratio : 16:9
Frame rate mode : Constant
Frame rate : 25.000 FPS
Color space : YUV
Chroma subsampling : 4:2:0
Bit depth : 8 bits
Scan type : Progressive
Bits/(Pixel*Frame) : 0.253
Stream size : 13.7 GiB (86%)
Title : DusIcTv Present
Writing library : x264 core 159 r2991 1771b55
Language : Hindi
Default : Yes
Forced : No

Audio
ID : 2
Format : DTS XLL
Format/Info : Digital Theater Systems
Commercial name : DTS-HD Master Audio
Codec ID : A_DTS
Duration : 2 h 29 min
Bit rate mode : Variable
Bit rate : 2 102 kb/s
Channel(s) : 6 channels
Channel layout : C L R Ls Rs LFE
Sampling rate : 48.0 kHz
Frame rate : 93.750 FPS (512 SPF)
Bit depth : 16 bits
Compression mode : Lossless
Stream size : 2.20 GiB (14%)
Title : (DusIcTv Present) DTS Master Audio 5.1
Language : Hindi
Default : Yes
Forced : No


Gdrive Single Link+Download

https://bit.ly/3cJMomc

Gofile.io Single link+download

https://gofile.io/?c=2EqVHc

0 0 vote
Article Rating
Subscribe
Notify of
guest
0 Comments
Inline Feedbacks
View all comments