Kya Yehi Pyaar Hai (2002) Untouched WEB DL 1080p AVC AAC [DrC] | G- Drive | 2.62 GB|

Format : MPEG-4
Format profile : Base Media
Codec ID : isom (isom/iso2/avc1/mp41)
File size : 2.62 GiB
Duration : 2 h 25 min
Overall bit rate mode : Variable
Overall bit rate : 2 565 kb/s
Writing application : Lavf58.9.100

Video
ID : 1
Format : AVC
Format/Info : Advanced Video Codec
Format profile : [email protected]
Format settings : CABAC / 5 Ref Frames
Format settings, CABAC : Yes
Format settings, ReFrames : 5 frames
Codec ID : avc1
Codec ID/Info : Advanced Video Coding
Duration : 2 h 25 min
Bit rate : 2 500 kb/s
Width : 1 920 pixels
Height : 1 080 pixels
Display aspect ratio : 16:9
Frame rate mode : Constant
Frame rate : 25.000 FPS
Color space : YUV
Chroma subsampling : 4:2:0
Bit depth : 8 bits
Scan type : Progressive
Bits/(Pixel*Frame) : 0.048
Stream size : 2.48 GiB (95%)
Writing library : x264 core 152

Audio
ID : 2
Format : AAC LC
Format/Info : Advanced Audio Codec Low Complexity
Codec ID : mp4a-40-2
Duration : 2 h 25 min
Bit rate mode : Variable
Bit rate : 128 kb/s
Maximum bit rate : 131 kb/s
Channel(s) : 2 channels
Channel layout : L R
Sampling rate : 44.1 kHz
Frame rate : 43.066 FPS (1024 SPF)
Compression mode : Lossy
Stream size : 134 MiB (5%)
Default : Yes
Alternate group : 1

G- Drive Download 2.6 GB

The File Locker Download 2.6 GB

0 0 vote
Article Rating
Subscribe
Notify of
guest
1 Comment
Oldest
Newest Most Voted
Inline Feedbacks
View all comments
Suresh Thakur
Suresh Thakur
1 month ago

Link Do Bhai Plz