Kuch Kuch Hota Hai 1998.BDRip.1080p.x264- 13.1 GB


Complete name :Kuch Kuch Hota Hai 1998.BDRip.1080p.x264.mkv
Format : Matroska
Format version : Version 4
File size : 13.1 GiB
Duration : 3 h 5 min
Overall bit rate : 10.1 Mb/s
Encoded date : UTC 2020-03-16 05:56:37
Writing application : mkvmerge v6.1.0 (‘Old Devil’) built on Mar 2 2013 14:32:37
Writing library : libebml v1.3.0 + libmatroska v1.4.0

Video
ID : 1
Format : AVC
Format/Info : Advanced Video Codec
Format profile : [email protected]
Format settings : CABAC / 4 Ref Frames
Format settings, CABAC : Yes
Format settings, Reference frames : 4 frames
Codec ID : V_MPEG4/ISO/AVC
Duration : 3 h 5 min
Bit rate : 8 626 kb/s
Width : 1 920 pixels
Height : 816 pixels
Display aspect ratio : 2.35:1
Frame rate mode : Constant
Frame rate : 24.000 FPS
Color space : YUV
Chroma subsampling : 4:2:0
Bit depth : 8 bits
Scan type : Progressive
Bits/(Pixel*Frame) : 0.229
Stream size : 10.9 GiB (83%)
Writing library : x264 core 110 r1820 fdcf2ae
Encoding settings : cabac=1 / ref=3 / deblock=1:0:0 / analyse=0x3:0x113 / me=hex / subme=7 / psy=1 / psy_rd=1.00:0.00 / mixed_ref=1 / me_range=16 / chroma_me=1 / trellis=1 / 8x8dct=1 / cqm=0 / deadzone=21,11 / fast_pskip=1 / chroma_qp_offset=-2 / threads=12 / sliced_threads=0 / nr=0 / decimate=1 / interlaced=0 / constrained_intra=0 / bframes=3 / b_pyramid=2 / b_adapt=1 / b_bias=0 / direct=1 / weightb=1 / open_gop=0 / weightp=2 / keyint=250 / keyint_min=23 / scenecut=40 / intra_refresh=0 / rc_lookahead=40 / rc=2pass / mbtree=1 / bitrate=8626 / ratetol=1.0 / qcomp=0.60 / qpmin=10 / qpmax=51 / qpstep=4 / cplxblur=20.0 / qblur=0.5 / ip_ratio=1.40 / aq=1:1.00
Language : English
Default : Yes
Forced : No

Audio
ID : 2
Format : DTS ES
Format/Info : Digital Theater Systems
Commercial name : DTS-ES Matrix
Codec ID : A_DTS
Duration : 3 h 5 min
Bit rate mode : Constant
Bit rate : 1 509 kb/s
Channel(s) : 6 channels
Channel(s)_Original : 7 channels
ChannelLayout_Original : C L R Ls Rs Cs LFE
Sampling rate : 48.0 kHz
Frame rate : 93.750 FPS (512 SPF)
Bit depth : 16 bits
Compression mode : Lossy
Stream size : 1.95 GiB (15%)
Default : No
Forced : No

Text
ID : 3
Format : VobSub
Muxing mode : zlib
Codec ID : S_VOBSUB
Codec ID/Info : Picture based subtitle format used on DVDs
Language : English
Default : Yes
Forced : No

Menu
00:00:00.000 : en:00:00:00.000
00:03:13.292 : en:00:03:13.292
00:08:10.625 : en:00:08:10.625
00:11:04.167 : en:00:11:04.167
00:19:04.958 : en:00:19:04.958
00:20:20.250 : en:00:20:20.250
00:23:54.500 : en:00:23:54.500
00:30:23.083 : en:00:30:23.083
00:44:07.583 : en:00:44:07.583
00:46:02.083 : en:00:46:02.083
00:54:10.667 : en:00:54:10.667
01:01:25.250 : en:01:01:25.250
01:09:22.542 : en:01:09:22.542
01:14:26.833 : en:01:14:26.833
01:20:58.667 : en:01:20:58.667
01:24:31.125 : en:01:24:31.125
01:29:53.417 : en:01:29:53.417
01:34:50.625 : en:01:34:50.625
01:41:59.667 : en:01:41:59.667
01:45:08.542 : en:01:45:08.542
01:50:19.208 : en:01:50:19.208
01:52:49.708 : en:01:52:49.708
01:55:50.667 : en:01:55:50.667
02:01:29.708 : en:02:01:29.708
02:05:02.708 : en:02:05:02.708
02:08:27.500 : en:02:08:27.500
02:09:35.917 : en:02:09:35.917
02:17:51.750 : en:02:17:51.750
02:23:49.083 : en:02:23:49.083
02:38:49.125 : en:02:38:49.125
02:48:49.542 : en:02:48:49.542
02:51:05.208 : en:02:51:05.208
02:54:12.042 : en:02:54:12.042
02:55:43.750 : en:02:55:43.750
03:01:16.750 : en:03:01:16.750
892e4b84c1d4e43d2e20ba7ed6aa9a20.gifvlcsnap-2020-03-16-15h54m02s154.pngvlcsnap-2020-03-16-15h53m48s735vlcsnap-2020-03-16-15h54m16s352vlcsnap-2020-03-16-15h54m22s376vlcsnap-2020-03-16-15h54m29s471vlcsnap-2020-03-16-15h54m36s532vlcsnap-2020-03-16-15h54m42s490vlcsnap-2020-03-16-15h54m50s352vlcsnap-2020-03-16-15h55m02s726

1080p GDrive Single Link + Download
http://bit.ly/33nVm52

Uloz.to Single Link+ Download
http://bit.ly/3aRobJU
0 0 vote
Article Rating
Subscribe
Notify of
guest
1 Comment
Oldest
Newest Most Voted
Inline Feedbacks
View all comments
nishant
nishant
1 year ago

please upload- Jab Tak Hai Jaan 1080p Bluray