Krrish 3 (2013) 1080p BluRay x264 ESubs Hindi DD5.1 CH

Format : Matroska
Format version : Version 4
File size : 3.94 GiB
Duration : 2 h 33 min
Overall bit rate : 3 684 kb/s
Movie name : [DesiShare.org] Krrish 3 (2013) 1080p BluRay x264 ESubs Hindi DD5.1 CH
Encoded date : UTC 2019-07-27 08:17:53
Writing application : mkvmerge v29.0.0 (‘Like It Or Not’) 32-bit
Writing library : libebml v1.3.6 + libmatroska v1.4.9

Video
ID : 1
Format : AVC
Format/Info : Advanced Video Codec
Format profile : [email protected]
Format settings : CABAC / 4 Ref Frames
Format settings, CABAC : Yes
Format settings, ReFrames : 4 frames
Codec ID : V_MPEG4/ISO/AVC
Duration : 2 h 33 min
Bit rate : 3 200 kb/s
Width : 1 920 pixels
Height : 816 pixels
Display aspect ratio : 2.35:1
Frame rate mode : Constant
Frame rate : 24.000 FPS
Color space : YUV
Chroma subsampling : 4:2:0
Bit depth : 8 bits
Scan type : Progressive
Bits/(Pixel*Frame) : 0.085
Stream size : 3.42 GiB (87%)
Title : [DesiShare.org]

Forced : Yes

Audio
ID : 2
Format : AAC LC
Format/Info : Advanced Audio Codec Low Complexity
Codec ID : A_AAC-2
Duration : 2 h 33 min
Bit rate : 483 kb/s
Channel(s) : 6 channels
Channel layout : C L R Ls Rs LFE
Sampling rate : 48.0 kHz
Frame rate : 46.875 FPS (1024 SPF)
Compression mode : Lossy
Delay relative to video : -125 ms
Stream size : 529 MiB (13%)
Title : [DesiShare.org]
Language : Hindi
Default : Yes
Forced : Yes

Text
ID : 3
Format : UTF-8
Codec ID : S_TEXT/UTF8
Codec ID/Info : UTF-8 Plain Text
Duration : 2 h 30 min
Bit rate : 39 b/s
Count of elements : 1508
Stream size : 43.4 KiB (0%)
Title : [DesiShare.org]
Language : English
Default : Yes
Forced : Yes

f54666684b9c7c67c0b3c858a41825ba.jpg
3352bfee70302197490d700450915191.jpg
37bab2f3eb6d39d4a0ac811a221d4337.jpg
5f9088f281e2c11cada0572bfd9a907f.jpg

PLAY ONLINE

The File Locker Download {3.94  GB} {zip}

Quick Download {3.94 GB} {zip}

{ Direct } Download  Link {3.94 GB}

{ G-Drive } Download  Link {3.94 GB}

{ Mega – Drive } Download  Link {3.94 GB} {ZIP}

{Media Fire } Download  Link {3.94 GB} {zip}

0 0 vote
Article Rating
Subscribe
Notify of
guest
2 Comments
Oldest
Newest Most Voted
Inline Feedbacks
View all comments
amirsohail
1 year ago

Bollywood movie 1920 evil return 1080p karo upload

amirsohail
1 year ago

Karo upload