Krrish (2006) (MUSIC VIDEOS ALBUM) 1080p Blu-Ray Rip DTS-HDMA 5.1 By-DusIcTv

Krrish (2006) (MUSIC VIDEOS ALBUM) 1080p Blu-Ray Rip DTS-HDMA 5.1 By-DusIcTv

xxxxxxxxxxxxxxxxxxxxxxxxxxxxxxxxxxxxxxxxxxxxxxxxxxxxxxxxxxxxxxxxxxxxxxxxxxxxxxxxxxxxxxxxxxxxxxxxxxx
Krrish (2006) (MUSIC VIDEOS ALBUM) 1080p Blu-Ray Rip DTS-HDMA 5.1 By-DusIcTv
xxxxxxxxxxxxxxxxxxxxxxxxxxxxxxxxxxxxxxxxxxxxxxxxxxxxxxxxxxxxxxxxxxxxxxxxxxxxxxxxxxxxxxxxxxxxxxxxxxx

:details:

Format : Matroska
Format version : Version 4
File size : 2.54 GB
Overall bit rate mode : Variable
Overall bit rate : 15.9 Mb/s
Writing application : mkvmerge v36.0.0 (‘Is That Jazz?’) 32-bit
Writing library : libebml v1.3.9 + libmatroska v1.5.2

Video
ID : 1
Format : AVC
Format/Info : Advanced Video Codec
Format profile : Hig[email protected]
Format settings : CABAC / 3 Ref Frames
Format settings, CABAC : Yes
Format settings, Reference frames : 3 frames
Codec ID : V_MPEG4/ISO/AVC
Bit rate mode : Variable
Bit rate : 10.7 Mb/s
Maximum bit rate : 40.0 Mb/s
Width : 1 920 pixels
Height : 816 pixels
Display aspect ratio : 2.35:1
Frame rate mode : Constant
Frame rate : 24.000 FPS
Color space : YUV
Chroma subsampling : 4:2:0
Bit depth : 8 bits
Scan type : Progressive
Bits/(Pixel*Frame) : 0.283
Stream size : 385 MiB (67%)
Default : Yes
Forced : No

Audio
ID : 2
Format : DTS XLL
Format/Info : Digital Theater Systems
Commercial name : DTS-HD Master Audio
Codec ID : A_DTS
Bit rate mode : Variable
Bit rate : 5 219 kb/s
Channel(s) : 6 channels
Channel layout : C L R Ls Rs LFE
Sampling rate : 48.0 kHz
Frame rate : 93.750 FPS (512 SPF)
Bit depth : 24 bits
Compression mode : Lossless
Delay relative to video : 51 ms
Stream size : 188 MiB (33%)
Language : Hindi
Default : Yes
Forced : No

Text
ID : 3
Format : PGS
Muxing mode : zlib
Codec ID : S_HDMV/PGS
Codec ID/Info : Picture based subtitle format used on BDs/HD-DVDs
Bit rate : 11.7 kb/s
Count of elements : 56
Stream size : 421 KiB (0%)
Language : English
Default : Yes
Forced : No

:screens:







:download2:
01-Chori Chori Chupke Chupke [By-DusIcTv].mkv   496.65 MB

https://thefileslocker.com/3avj6fygaafc.html

02-Pyar Ki Ek Kahani [By-DusIcTv].mkv   573.38 MB

https://thefileslocker.com/lzasjop7fjas.html

03-Dil Na Diya [By-DusIcTv].mkv   662.46 MB

https://thefileslocker.com/xb4sbxgf7v4w.html

04-Koi Tumsa Nahin [By-DusIcTv].mkv   620.32 MB

https://thefileslocker.com/26utx7dmx5r9.html

05-Music Mix (End) [By-DusIcTv].mkv   257.00 MB

https://thefileslocker.com/j837ul3xnfiv.html

https://thefileslocker.com/trc2l1cdr1fx.html
https://desiupload.to/f/0su4fn-nvpt4wjl7lokr

0 0 vote
Article Rating
Subscribe
Notify of
guest
0 Comments
Inline Feedbacks
View all comments