Kismat Konnection (2008) Hindi 1080p Untouched WebHD AVC DD 5.1 {Music Video}

Thanks To Special 26

Format : Matroska
Format version : Version 4
File size : 1.14 GB
Overall bit rate mode : Variable
Overall bit rate : 9 329 kb/s
Writing library : libebml v1.3.6 + libmatroska v1.4.9 / Lavf58.0.0

Video
ID : 1
Format : AVC
Format/Info : Advanced Video Codec
Format profile : [email protected]
Format settings : CABAC / 3 Ref Frames
Format settings, CABAC : Yes
Format settings, ReFrames : 3 frames
Codec ID : V_MPEG4/ISO/AVC
Bit rate mode : Variable
Bit rate : 8 686 kb/s
Maximum bit rate : 11.2 Mb/s
Width : 1 920 pixels
Height : 1 080 pixels
Display aspect ratio : 16:9
Frame rate mode : Constant
Frame rate : 25.000 FPS
Color space : YUV
Chroma subsampling : 4:2:0
Bit depth : 8 bits
Scan type : Progressive
Bits/(Pixel*Frame) : 0.168
Stream size : 236 MiB (93%)
Default : Yes
Forced : No

Audio
ID : 2
Format : E-AC-3
Format/Info : Enhanced AC-3
Commercial name : Dolby Digital Plus
Codec ID : A_EAC3
Bit rate mode : Constant
Bit rate : 640 kb/s
Channel(s) : 6 channels
Channel layout : L R C LFE Ls Rs
Sampling rate : 48.0 kHz
Frame rate : 31.250 FPS (1536 SPF)
Compression mode : Lossy
Stream size : 17.4 MiB (7%)
Service kind : Complete Main
Default : Yes
Forced : No

ScreenShots

57488ffd7b69a8b063e83c6b0a7b7375.png
cb57846871f4aac60b7c46ea2c878553.png
64fd74ad928fa865be08ca1e238abca0.png
31974d369d6486df9014a7ebed842d20.png
0e84fc31827a41cb47c81e11b2166bc9.png
050b128688a0eb03f215e109e6df8219.png
b6f406b76694d0dc465d457d876fa96c.png
d3f60993463c0e39928f60f175c3210c.png
5bae65d4e8aa5890462e08a1af6f1556.png

{ G-drive } Download  Link 

0 0 vote
Article Rating
Subscribe
Notify of
guest
4 Comments
Oldest
Newest Most Voted
Inline Feedbacks
View all comments
Ashish Balva
Ashish Balva
1 year ago

Account suspended kindly make it available further

DIGI8873
Reply to  Ashish Balva
1 year ago

Fixed

bunny
bunny
1 year ago

Link not working

Katper
Katper
1 year ago

files deleted, plz reupload