Khiladiyon Ka Khiladi (1996) 1080p WEBHD Untouched – DTOne

Credits = Lovepreet1

General

Format                                   : MPEG-4
Format profile                           : Base Media
Codec ID                                 : isom (isom/iso2/avc1/mp41)
File size                                : 3.48 GiB
Duration                                 : 2 h 43 min
Overall bit rate                         : 3 058 kb/s
Writing application                      : Lavf58.17.101

Video
ID                                       : 1
Format                                   : AVC
Format/Info                              : Advanced Video Codec
Format profile                           : [email protected]
Format settings                          : CABAC / 4 Ref Frames
Format settings, CABAC                   : Yes
Format settings, RefFrames               : 4 frames
Codec ID                                 : avc1
Codec ID/Info                            : Advanced Video Coding
Duration                                 : 2 h 43 min
Bit rate                                 : 3 000 kb/s
Width                                    : 1 920 pixels
Height                                   : 1 080 pixels
Display aspect ratio                     : 16:9
Frame rate mode                          : Constant
Frame rate                               : 25.000 FPS
Color space                              : YUV
Chroma subsampling                       : 4:2:0
Bit depth                                : 8 bits
Scan type                                : Progressive
Bits/(Pixel*Frame)                       : 0.058
Stream size                              : 3.40 GiB (98%)
Writing library                          : x264 core 152 r2854 e9a5903

Audio
ID                                       : 2
Format                                   : AAC
Format/Info                              : Advanced Audio Codec
Format profile                           : LC
Codec ID                                 : mp4a-40-2
Duration                                 : 2 h 43 min
Bit rate mode                            : Constant
Bit rate                                 : 64.2 kb/s
Channel(s)                               : 2 channels
Channel positions                        : Front: L R
Sampling rate                            : 48.0 kHz
Frame rate                               : 46.875 FPS (1024 SPF)
Compression mode                         : Lossy
Stream size                              : 74.9 MiB (2%)
Default                                  : Yes
Alternate group                          : 1

PLAY ONLINE

The File Locker Download {3.48 GiB} {zip}

Quick Download {3.48 GiB} {zip}

{ Direct } Download  Link {3.48 GiB}

{ G-Drive } Download  Link {3.48 GiB}

{ Mega – Drive } Download  Link {3.48 GiB} {ZIP}

{Media Fire } Download  Link {3.48 GiB} {zip}

0 0 vote
Article Rating
Subscribe
Notify of
guest
2 Comments
Oldest
Newest Most Voted
Inline Feedbacks
View all comments
amirsohail
1 year ago

Bollywood movie Khiladi 1992 1080p karo upload

amirsohail
1 year ago

Bollywood movie Krrish 3 1080p karo upload