Khandani Shafakhana (2019) Hindi 1080p AMZN WEBRip DD 5.1 H264 ESubs ~RONIN~ [2.6GB] | G-Drive

Format : Matroska
Format version : Version 4
File size : 2.56 GiB
Duration : 2 h 14 min
Overall bit rate : 2 718 kb/s
Encoded date : UTC 2019-09-25 23:50:15
Writing application : HandBrake 1.2.2 2019022300
Writing library : Lavf58.20.100
ErrorDetectionType : Per level 1

Video
ID : 1
Format : AVC
Format/Info : Advanced Video Codec
Format profile : [email protected]
Format settings : CABAC / 5 Ref Frames
Format settings, CABAC : Yes
Format settings, ReFrames : 5 frames
Codec ID : V_MPEG4/ISO/AVC
Duration : 2 h 14 min
Bit rate : 2 246 kb/s
Width : 1 920 pixels
Height : 812 pixels
Display aspect ratio : 2.35:1
Frame rate mode : Constant
Frame rate : 24.000 FPS
Color space : YUV
Chroma subsampling : 4:2:0
Bit depth : 8 bits
Scan type : Progressive
Bits/(Pixel*Frame) : 0.060
Stream size : 2.09 GiB (82%)
Writing library : x264 core 157 r2935 545de2f

Default : Yes
Forced : No
Color range : Limited
Color primaries : BT.709
Transfer characteristics : BT.709
Matrix coefficients : BT.709

Audio
ID : 2
Format : AC-3
Format/Info : Audio Coding 3
Commercial name : Dolby Digital
Codec ID : A_AC3
Duration : 2 h 14 min
Bit rate mode : Constant
Bit rate : 448 kb/s
Channel(s) : 6 channels
Channel layout : L R C LFE Ls Rs
Sampling rate : 48.0 kHz
Frame rate : 31.250 FPS (1536 SPF)
Bit depth : 16 bits
Compression mode : Lossy
Delay relative to video : -5 ms
Stream size : 433 MiB (16%)
Title : Surround
Service kind : Complete Main
Default : Yes
Forced : No

Text
ID : 3
Format : ASS
Codec ID : S_TEXT/ASS
Codec ID/Info : Advanced Sub Station Alpha
Duration : 2 h 14 min
Compression mode : Lossless
Language : English
Default : No
Forced : No

f9f1590990fa76d44eafbe5b432c6008.md.png
20aa41c4435cc1d378ebdaf177658288.md.png
ff5a28da7e1b0dd73c5a07102385b68f.md.png
02cd9d5f2b8bb515a517c4d163606440.md.png
7a46d75d81acef7f360876bb185555e6.md.png
970bef195cf6079d83204d72b2b9073c.md.png
ce9e0a2093ca0325e6d8db9015ca8acc.md.png
7dc6634b5e9767e04c53156b8349794c.md.png
9a0d369bda1e221556f07e97ec3bdafe.md.png
c1bbdb10e6fda74a6c5a5b8c5a12b876.md.png
cfde4e7e0db4a2120dd8f1471a93990a.md.png
a6bcf190ff387fdfbdb39f3862e064de.md.png

The File Locker Download

G-Drive Download

0 0 vote
Article Rating
Subscribe
Notify of
guest
0 Comments
Inline Feedbacks
View all comments