Khandani Shafakhana (2019) 1080p HEVC AMZN WEB-DL H264 DDP 5.1 Esub -The Punisher | 3.5 GB | G- Drive|

Format : Matroska
Format version : Version 4
File size : 3.39 GiB
Duration : 2 h 14 min
Overall bit rate : 3 596 kb/s
Encoded date : UTC 2019-09-26 03:47:39
Writing application : mkvmerge v32.0.0 (‘Astral Progressions’) 32-bit
Writing library : libebml v1.3.7 + libmatroska v1.5.0

Video
ID : 1
Format : HEVC
Format/Info : High Efficiency Video Coding
Format profile : [email protected]@Main
Codec ID : V_MPEGH/ISO/HEVC
Duration : 2 h 14 min
Bit rate : 2 954 kb/s
Width : 1 920 pixels
Height : 816 pixels
Display aspect ratio : 2.35:1
Frame rate mode : Constant
Frame rate : 24.000 FPS
Standard : NTSC
Color space : YUV
Chroma subsampling : 4:2:0
Bit depth : 8 bits
Bits/(Pixel*Frame) : 0.079
Stream size : 2.79 GiB (82%)
Default : Yes
Forced : No
Color range : Limited
Color primaries : BT.709
Transfer characteristics : BT.709
Matrix coefficients : BT.709

Audio
ID : 2
Format : E-AC-3
Format/Info : Enhanced AC-3
Commercial name : Dolby Digital Plus
Codec ID : A_EAC3
Duration : 2 h 14 min
Bit rate mode : Constant
Bit rate : 640 kb/s
Channel(s) : 6 channels
Channel layout : L R C LFE Ls Rs
Sampling rate : 48.0 kHz
Frame rate : 31.250 FPS (1536 SPF)
Compression mode : Lossy
Stream size : 618 MiB (18%)
Title : Hindi
Language : Hindi
Service kind : Complete Main
Default : No
Forced : No

Text
ID : 3
Format : UTF-8
Codec ID : S_TEXT/UTF8
Codec ID/Info : UTF-8 Plain Text
Duration : 2 h 12 min
Bit rate : 60 b/s
Count of elements : 1700
Stream size : 58.2 KiB (0%)
Title : English [SDH]
Language : English
Default : No
Forced : No

Menu
00:00:00.000 : en:Central Board of Film Certification
00:00:06.000 : en:Disclaimer
00:00:20.000 : en:Acknowledgement
00:00:28.000 : en:Studio Logo
00:02:26.000 : en:Title Sequence
00:02:38.000 : en:Scene 6
00:21:04.000 : en:Scene 7
00:44:38.000 : en:Scene 8
00:49:22.000 : en:Scene 9
01:07:32.000 : en:Scene 10
01:25:41.000 : en:Scene 11
01:40:01.000 : en:Scene 12
02:10:37.000 : en:End Credits

f9f1590990fa76d44eafbe5b432c6008.th.png 20aa41c4435cc1d378ebdaf177658288.th.png ff5a28da7e1b0dd73c5a07102385b68f.th.png 02cd9d5f2b8bb515a517c4d163606440.th.png 7a46d75d81acef7f360876bb185555e6.th.png 970bef195cf6079d83204d72b2b9073c.th.png ce9e0a2093ca0325e6d8db9015ca8acc.th.png 7dc6634b5e9767e04c53156b8349794c.th.png 9a0d369bda1e221556f07e97ec3bdafe.th.png c1bbdb10e6fda74a6c5a5b8c5a12b876.th.png cfde4e7e0db4a2120dd8f1471a93990a.th.png a6bcf190ff387fdfbdb39f3862e064de.th.png

The File Locker Download

G-Drive Download

0 0 vote
Article Rating
Subscribe
Notify of
guest
0 Comments
Inline Feedbacks
View all comments