Kesari (2019) (MUSIC VIDEO ALBUM) Untouched – BD50 DTS-HDMA 5.1 ESuBS By-DusIcTv

General
ID : 1 (0x1)
Format : BDAV
Format : M2ts
Format/Info : Blu-ray Video
File size : 4.80 GB
Overall bit rate mode : Variable
Overall bit rate : 36.8 Mb/s
Maximum Overall bit rate : 35.5 Mb/s

Video
ID : 4113 (0x1011)
Menu ID : 1 (0x1)
Format : AVC
Format/Info : Advanced Video Codec
Format profile : [email protected]
Format settings : CABAC / 4 Ref Frames
Format settings, CABAC : Yes
Format settings, Reference frames : 4 frames
Codec ID : 27
Bit rate mode : Constant
Nominal bit rate : 30.0 Mb/s
Width : 1 920 pixels
Height : 1 080 pixels
Display aspect ratio : 16:9
Frame rate : 24.000 FPS
Color space : YUV
Chroma subsampling : 4:2:0
Bit depth : 8 bits
Scan type : Progressive
Bits/(Pixel*Frame) : 0.603

Audio #1
ID : 4352 (0x1100)
Menu ID : 1 (0x1)
Format : DTS XLL
Format/Info : Digital Theater Systems
Commercial name : DTS-HD Master Audio
Muxing mode : Stream extension
Codec ID : 134
Bit rate mode : Variable
Channel(s) : 6 channels
Channel layout : C L R Ls Rs LFE
Sampling rate : 48.0 kHz
Frame rate : 93.750 FPS (512 SPF)
Bit depth : 24 bits
Compression mode : Lossless
Delay relative to video : -71 ms
Language : Hindi

Audio #2
ID : 4353 (0x1101)
Menu ID : 1 (0x1)
Format : AC-3
Format/Info : Audio Coding 3
Commercial name : Dolby Digital
Codec ID : 129
Bit rate mode : Constant
Bit rate : 448 kb/s
Channel(s) : 6 channels
Channel layout : L R C LFE Ls Rs
Sampling rate : 48.0 kHz
Frame rate : 31.250 FPS (1536 SPF)
Bit depth : 16 bits
Compression mode : Lossy
Delay relative to video : -60 ms
Stream size : 3.20 MiB (1%)
Language : Hindi
Service kind : Complete Main

Audio #3
ID : 4354 (0x1102)
Menu ID : 1 (0x1)
Format : AC-3
Format/Info : Audio Coding 3
Commercial name : Dolby Digital
Codec ID : 129
Bit rate mode : Constant
Bit rate : 224 kb/s
Channel(s) : 2 channels
Channel layout : L R
Sampling rate : 48.0 kHz
Frame rate : 31.250 FPS (1536 SPF)
Bit depth : 16 bits
Compression mode : Lossy
Delay relative to video : -60 ms
Stream size : 1.60 MiB (1%)
Language : Hindi
Service kind : Complete Main

Text
ID : 4608 (0x1200)
Menu ID : 1 (0x1)
Format : PGS
Codec ID : 144
Delay relative to video : 2 s 708 ms
Language : English

01-Ve Maahi [By-DusIcTv].m2ts – 1016.1 MB

02-Sanu Kehndi [By-DusIcTv].m2ts – 731.0 MB

03-Deh Shiva 1 (Female Version) [By-DusIcTv].m2ts – 350.9 MB

04-Judai Pae Jaani [By-DusIcTv].m2ts – 394.4 MB

05-Deh Shiva 2 (Male Version) [By-DusIcTv].m2ts – 262.6 MB

06-Deh Shiva 3 (Female Version) [By-DusIcTv].m2ts – 493.8 MB

07-Teri Mitti End Roll [By-DusIcTv].m2ts – 1.6 GB

 

 

 

0 0 vote
Article Rating
Subscribe
Notify of
guest
0 Comments
Inline Feedbacks
View all comments