Katy Perry Music Videos WebHD H264 DTS.5.1 By-DusIcTv | 2.9 GB |

 

xxxxxxxxxxxxxxxxxxxxxxxxxxxxxxxxxxxxxxxxxxxxxxxxxxxxxxxxxxxxxxxxxxxxxxxxxxxxxxxxxxxxxxxxxxxxxxxxxxx
Katy Perry Music Videos WebHD H264 DTS.5.1 By-DusIcTv
xxxxxxxxxxxxxxxxxxxxxxxxxxxxxxxxxxxxxxxxxxxxxxxxxxxxxxxxxxxxxxxxxxxxxxxxxxxxxxxxxxxxxxxxxxxxxxxxxxx

Media info
General
Format : MPEG-TS
File size : 2.97 GB
Overall bit rate mode : Variable
Overall bit rate : 9 098 kb/s
Maximum Overall bit rate : 35.5 Mb/s
FileExtension_Invalid : ts m2t m2s m4t m4s tmf ts tp trp ty

Video
ID : 4113 (0x1011)
Menu ID : 1 (0x1)
Format : AVC
Format/Info : Advanced Video Codec
Format profile : [email protected]
Format settings : CABAC / 4 Ref Frames
Format settings, CABAC : Yes
Format settings, Reference frames : 4 frames
Codec ID : 27
Bit rate mode : Variable
Bit rate : 7 124 kb/s
Maximum bit rate : 40.0 Mb/s
Width : 1 920 pixels
Height : 1 080 pixels
Display aspect ratio : 16:9
Frame rate : 23.976 (23976/1000) FPS
Color space : YUV
Chroma subsampling : 4:2:0
Bit depth : 8 bits
Scan type : Progressive
Bits/(Pixel*Frame) : 0.143
Stream size : 191 MiB (78%)

Audio
ID : 4352 (0x1100)
Menu ID : 1 (0x1)
Format : DTS
Format/Info : Digital Theater Systems
Codec ID : 130
Bit rate mode : Constant
Bit rate : 1 509 kb/s
Channel(s) : 6 channels
Channel layout : C L R Ls Rs LFE
Sampling rate : 48.0 kHz
Frame rate : 93.750 FPS (512 SPF)
Bit depth : 16 bits
Compression mode : Lossy
Stream size : 40.4 MiB (17%)

G- Drive Download 

The File Locker Download 

Katy Perry – Chained To The Rhythm [By-DusIcTv].mkv – 256.2 MB

Katy Perry – Cozy Little Christmas [By-DusIcTv].mkv – 130.5 MB

Katy Perry – Harleys In Hawaii [By-DusIcTv].mkv – 229.5 MB

Katy Perry – Hey Hey Hey [By-DusIcTv].mkv – 257.8 MB

Katy Perry – Last Friday Night (T.G.I.F.) [By-DusIcTv].mkv – 104.8 MB

Katy Perry – Never Really Over [By-DusIcTv].mkv – 295.0 MB

Katy Perry – Never Really Over II [By-DusIcTv].mkv – 224.3 MB

Katy Perry – Rise [By-DusIcTv].mkv – 225.8 MB

Katy Perry – Roar [By-DusIcTv].mkv – 306.3 MB

Katy Perry – Small Talk [By-DusIcTv].mkv – 100.0 MB

Katy Perry – Swish Swish [By-DusIcTv].mkv – 359.8 MB

Katy Perry – This Is How We Do [By-DusIcTv].mkv – 138.3 MB

Katy Perry – Unconditionally [By-DusIcTv].mkv – 174.3 MB

Katy Perry Juicy J – Dark Horse [By-DusIcTv].mkv – 244.0 MB

0 0 vote
Article Rating
Subscribe
Notify of
guest
1 Comment
Oldest
Newest Most Voted
Inline Feedbacks
View all comments
Katper
Katper
1 year ago

thanks..
more 5.1 stuff plzz