Karzzzz (2008) (MUSIC VIDEOS ALBUM) 1080p WebHD AVC DDP 5.1 By-DusIcTv

xxxxxxxxxxxxxxxxxxxxxxxxxxxxxxxxxxxxxxxxxxxxxxxxxxxxxxxxxxxxxxx
Karzzzz (2008) (MUSIC VIDEOS ALBUM) 1080p WebHD AVC DDP 5.1 By-DusIcTv
xxxxxxxxxxxxxxxxxxxxxxxxxxxxxxxxxxxxxxxxxxxxxxxxxxxxxxxxxxxxxxx

General
Format : Matroska
Format version : Version 4
File size : 4.18 GB
Overall bit rate mode : Variable
Overall bit rate : 9 454 kb/s
Encoded date : UTC 2019-09-08 15:16:47
Writing application : mkvmerge v36.0.0 (‘Is That Jazz?’) 32-bit
Writing library : libebml v1.3.9 + libmatroska v1.5.2

Video
ID : 1
Format : AVC
Format/Info : Advanced Video Codec
Format profile : [email protected]
Format settings : CABAC / 4 Ref Frames
Format settings, CABAC : Yes
Format settings, Reference frames : 4 frames
Codec ID : V_MPEG4/ISO/AVC
Bit rate mode : Variable
Bit rate : 8 868 kb/s
Maximum bit rate : 15.0 Mb/s
Width : 1 920 pixels
Height : 816 pixels
Display aspect ratio : 2.35:1
Frame rate mode : Constant
Frame rate : 25.000 FPS
Color space : YUV
Chroma subsampling : 4:2:0
Bit depth : 8 bits
Scan type : Progressive
Bits/(Pixel*Frame) : 0.226
Stream size : 162 MiB (93%)
Default : Yes
Forced : No
Color range : Limited
Color primaries : BT.709
Transfer characteristics : BT.709
Matrix coefficients : BT.709

Audio
ID : 2
Format : E-AC-3
Format/Info : Enhanced AC-3
Commercial name : Dolby Digital Plus
Codec ID : A_EAC3
Bit rate mode : Constant
Bit rate : 640 kb/s
Channel(s) : 6 channels
Channel layout : L R C LFE Ls Rs
Sampling rate : 48.0 kHz
Frame rate : 31.250 FPS (1536 SPF)
Compression mode : Lossy
Delay relative to video : 24 ms
Stream size : 11.7 MiB (7%)
Language : English
Service kind : Complete Main
Default : Yes
Forced : No

Text
ID : 3
Format : UTF-8
Codec ID : S_TEXT/UTF8
Codec ID/Info : UTF-8 Plain Text
Bit rate : 32 b/s
Count of elements : 18
Stream size : 609 Bytes (0%)
Default : Yes
Forced : No

G- Drive Download 

01-Lut Jaaon Lut Jaaon (1st) [By-DusIcTv].mkv – 173.8 MB

02-Sisak Sisak [By-DusIcTv].mkv – 409.6 MB

03-Masha Allah (1st) [By-DusIcTv].mkv – 538.9 MB

04-Hari Om Hari Om [By-DusIcTv].mkv – 350.6 MB

05-Ek Haseena Thi (Dance Music) [By-DusIcTv].mkv – 197.8 MB

06-Masha Allah (2nd) [By-DusIcTv].mkv – 364.1 MB

07-Soniye Je Tere [By-DusIcTv].mkv – 336.4 MB

08-Lut Jaaon Lut Jaaon (2nd) [By-DusIcTv].mkv – 214.6 MB

09-Tere Bin Chain Na Aave [By-DusIcTv].mkv – 415.9 MB

10-Tandoori Nights [By-DusIcTv].mkv – 391.6 MB

11-Lut Jaaon Lut Jaaon (3rd) [By-DusIcTv].mkv – 208.0 MB

12-Ek Haseena Thi [By-DusIcTv].mkv – 646.4 MB

13-Dhoom Tere Ishq Ki [By-DusIcTv].mkv – 41.5 MB

0 0 vote
Article Rating
Subscribe
Notify of
guest
1 Comment
Oldest
Newest Most Voted
Inline Feedbacks
View all comments
rustedfire
rustedfire
1 year ago

Please upload karzzzz (2008) movie in HD quality.