Karan Arjun (1995) Hindi 1080p Untouched WebHD AVC DD Plus 2.0 {Music Video}

Format : Matroska
Format version : Version 4
File size : 2.95 GB
Overall bit rate mode : Variable
Overall bit rate : 12.6 Mb/s
Writing library : libebml v1.3.6 + libmatroska v1.4.9

Video
ID : 1
Format : AVC
Format/Info : Advanced Video Codec
Format profile : [email protected]
Format settings : CABAC / 4 Ref Frames
Format settings, CABAC : Yes
Format settings, ReFrames : 4 frames
Codec ID : V_MPEG4/ISO/AVC
Bit rate mode : Variable
Bit rate : 12.2 Mb/s
Maximum bit rate : 15.0 Mb/s
Width : 1 920 pixels
Height : 1 080 pixels
Display aspect ratio : 16:9
Frame rate mode : Constant
Frame rate : 25.000 FPS
Color space : YUV
Chroma subsampling : 4:2:0
Bit depth : 8 bits
Scan type : Progressive
Bits/(Pixel*Frame) : 0.235
Stream size : 379 MiB (96%)
Default : Yes
Forced : No
Color range : Limited
Color primaries : BT.709
Transfer characteristics : BT.709
Matrix coefficients : BT.709

Audio #1
ID : 2
Format : AC-3
Format/Info : Audio Coding 3
Commercial name : Dolby Digital
Codec ID : A_AC3
Bit rate mode : Constant
Bit rate : 224 kb/s
Channel(s) : 2 channels
Channel layout : L R
Sampling rate : 48.0 kHz
Frame rate : 31.250 FPS (1536 SPF)
Bit depth : 16 bits
Compression mode : Lossy
Delay relative to video : 24 ms
Stream size : 6.97 MiB (2%)
Language : Hindi
Service kind : Complete Main
Default : Yes
Forced : Yes

Audio #2
ID : 3
Format : E-AC-3
Format/Info : Enhanced AC-3
Commercial name : Dolby Digital Plus
Codec ID : A_EAC3
Bit rate mode : Constant
Bit rate : 224 kb/s
Channel(s) : 2 channels
Channel layout : L R
Sampling rate : 48.0 kHz
Frame rate : 31.250 FPS (1536 SPF)
Compression mode : Lossy
Delay relative to video : 24 ms
Stream size : 6.97 MiB (2%)
Title : Hindi
Language : Hindi
Service kind : Complete Main
Default : No
Forced : No


ScreenShots

e0c28946509fd716d6a3c7388bb2ff5c.md.png
892372914b4462012b80019bf8e7871a.md.png
15f5108c93cb90fd6a4ff8b978fde527.md.png
e82770e6ac8b28cdf71cd51452245e1e.md.png
3ea75bd229dc0f5e9582fdb2ce10a1b7.md.png
a1aab6385e6bafcd59b838c0d1e0d96a.md.png
fb601331dc7bec3266069a400269be5f.md.png
86c10b179d9ccaab9d1992288fbb47fc.md.png
f4c47582bd517a8195fe0c55128fcdbe.md.png
178ea71b3af65047a3d07ad87c735f28.md.png
78735b45c1e83fddad5a4a1f53292890.md.png
a516fe248923f0c790382a67e0f86298.md.png
6c5443f958a621e50bd0b49f84496120.md.png
fc9e4d27792091dd489329e4e88dccfd.md.png
57abd1a629f2496e2d2be38703ef760d.md.png
423d4069a226e30dd8c841f87905b167.md.png
609d08b5c74fcf53ac5c48bf461edd5c.md.png
327e74249805a6dc3ccc5db507f47ddb.md.png
036f4c62ee2336490d117c3321721698.md.png
64da79eb72826850cb40a3be64291087.md.png
906376993f092d021af4b5a3271037ef.md.png

{ G-Drive } Download  Link 

0 0 vote
Article Rating
Subscribe
Notify of
guest
3 Comments
Oldest
Newest Most Voted
Inline Feedbacks
View all comments
aaron
aaron
1 year ago

link not working sir

Whictibed
Whictibed
1 year ago

link down please restore

Katper
Katper
1 year ago

please update the link