Kapoor And Sons (2016) (MUSIC VIDEO ALBUM) 1080p Blu-Ray Untouched BD50 DOLBY ATMOS TrueHD 7.1 By-DusIcTv

xxxxxxxxxxxxxxxxxxxxxxxxxxxxxxxxxxxxxxxxxxxxxxxxxxxxxxxxxxxxxxx
Kapoor And Sons (2016) (MUSIC VIDEO ALBUM) 1080p Blu-Ray Untouched BD50 DOLBY ATMOS TrueHD 7.1 By-DusIcTv
xxxxxxxxxxxxxxxxxxxxxxxxxxxxxxxxxxxxxxxxxxxxxxxxxxxxxxxxxxxxxxx
Media info
General
ID                                       : 1 (0x1)
Format                                   : BDAV
Format                                   : M2ts
Format/Info                              : Blu-ray Video
File size                                : 2.41 GB
Overall bit rate mode                    : Variable
Overall bit rate                         : 43.5 Mb/s
Maximum Overall bit rate                 : 35.5 Mb/s

Video
ID                                       : 4113 (0x1011)
Menu ID                                  : 1 (0x1)
Format                                   : AVC
Format/Info                              : Advanced Video Codec
Format profile                           : [email protected]
Format settings                          : CABAC / 4 Ref Frames
Format settings, CABAC                   : Yes
Format settings, Reference frames        : 4 frames
Codec ID                                 : 27
Bit rate mode                            : Variable
Bit rate                                 : 40.5 Mb/s
Maximum bit rate                         : 35.0 Mb/s
Width                                    : 1 920 pixels
Height                                   : 1 080 pixels
Display aspect ratio                     : 16:9
Frame rate                               : 24.000 FPS
Standard                                 : NTSC
Color space                              : YUV
Chroma subsampling                       : 4:2:0
Bit depth                                : 8 bits
Scan type                                : Progressive
Bits/(Pixel*Frame)                       : 0.813
Stream size                              : 674 MiB (93%)
Color range                              : Limited
Color primaries                          : BT.709
Transfer characteristics                 : BT.709
Matrix coefficients                      : BT.709

Audio #1
ID                                       : 4352 (0x1100)
Menu ID                                  : 1 (0x1)
Format                                   : AC-3 MLP FBA 16-ch
Format/Info                              : Audio Coding 3 + Meridian Lossless Packing FBA with 16-channel presentation
Commercial name                          : Dolby TrueHD with Dolby Atmos
Muxing mode                              : Stream extension
Codec ID                                 : 131
Bit rate mode                            : Variable
Bit rate                                 : 640 kb/s
Maximum bit rate                         : 6 717 kb/s
Channel(s)                               : 8 channels
Channel layout                           : L R C LFE Ls Rs Lb Rb
Sampling rate                            : 48.0 kHz
Frame rate                               : 31.250 FPS (1536 SPF)
Bit depth                                : 16 bits
Compression mode                         : Lossy
Delay relative to video                  : -59 ms
Stream size                              : 10.7 MiB (1%)
Language                                 : Hindi
Service kind                             : Complete Main
Number of dynamic objects                : 11
Bed channel count                        : 1 channel
Bed channel configuration                : LFE

Audio #2
ID                                       : 4353 (0x1101)
Menu ID                                  : 1 (0x1)
Format                                   : AC-3
Format/Info                              : Audio Coding 3
Commercial name                          : Dolby Digital
Codec ID                                 : 129
Bit rate mode                            : Constant
Bit rate                                 : 640 kb/s
Channel(s)                               : 6 channels
Channel layout                           : L R C LFE Ls Rs
Sampling rate                            : 48.0 kHz
Frame rate                               : 31.250 FPS (1536 SPF)
Bit depth                                : 16 bits
Compression mode                         : Lossy
Delay relative to video                  : -59 ms
Stream size                              : 10.7 MiB (1%)
Language                                 : Hindi
Service kind                             : Complete Main

Text
ID                                       : 4608 (0x1200)
Menu ID                                  : 1 (0x1)
Format                                   : PGS
Codec ID                                 : 144
Delay relative to video                  : 917 ms
Language                                 : English

01-Buddhu Sa Mann [By-DusIcTv].m2ts – 725.5 MB

03-Kar Gayi Chull [By-DusIcTv].m2ts – 877.2 MB

04-Saathi Rey 1 [By-DusIcTv].m2ts – 651.0 MB

05-Saathi Rey 2 [By-DusIcTv].m2ts – 225.3 MB

0 0 vote
Article Rating
Subscribe
Notify of
guest
3 Comments
Oldest
Newest Most Voted
Inline Feedbacks
View all comments
Anu Rat
Anu Rat
1 year ago

Bro plz post Telugu and Tamil bd50 video songs

rancho
rancho
1 year ago

aditi rao hydari’s – “yeh saali zindagi” BD50 please _/\_

JustCampMan
JustCampMan
1 year ago

Where is let’s nacho?