Kalyug (2005) Hindi 1080p Untouched Webhd AVC {Music Video}

Thanks to special 26

Format                         : Matroska
Format version                 : Version 4
File size                      : 984 MB
Overall bit rate mode          : Variable
Overall bit rate               : 6 259 kb/s

Video
ID                             : 1
Format                         : AVC
Format/Info                    : Advanced Video Codec
Format profile                 : [email protected]
Format settings                : CABAC / 4 Ref Frames
Format settings, CABAC         : Yes
Format settings, ReFrames      : 4 frames
Codec ID                       : V_MPEG4/ISO/AVC
Bit rate mode                  : Variable
Bit rate                       : 6 032 kb/s
Maximum bit rate               : 15.0 Mb/s
Width                          : 1 920 pixels
Height                         : 816 pixels
Display aspect ratio           : 2.35:1
Frame rate mode                : Constant
Frame rate                     : 25.000 FPS
Color space                    : YUV
Chroma subsampling             : 4:2:0
Bit depth                      : 8 bits
Scan type                      : Progressive
Bits/(Pixel*Frame)             : 0.154
Stream size                    : 206 MiB (96%)
Language                       : Hindi
Default                        : Yes
Forced                         : No
Color range                    : Limited
Color primaries                : BT.709
Transfer characteristics       : BT.709
Matrix coefficients            : BT.709

Audio
ID                             : 2
Format                         : E-AC-3
Format/Info                    : Enhanced AC-3
Commercial name                : Dolby Digital Plus
Codec ID                       : A_EAC3
Bit rate mode                  : Constant
Bit rate                       : 224 kb/s
Channel(s)                     : 2 channels
Channel layout                 : L R
Sampling rate                  : 48.0 kHz
Frame rate                     : 31.250 FPS (1536 SPF)
Compression mode               : Lossy
Delay relative to video        : 16 ms
Stream size                    : 7.67 MiB (4%)
Language                       : Hindi
Service kind                   : Complete Main
Default                        : No
Forced                         : No


ScreenShots

c4542314e61799db4085bf2b5f24dca1.md.png
7bad49f333123487f3712df3c6490a2c.md.png
216ba71e4871063c687c43f5fa157607.md.png
e9fadeaf0fb510a771cf2d084ea55379.md.png
4fe49fc5314776293a0a75c3f4b8b166.md.png
b0544e904b0896ea016c1ab740fcc778.md.png
234058973dd5b87668ac5ca24b2779b1.md.png
e83d086980cb10552d7657c7eac4ef1d.md.png
bf28221a0e5b04259da7df9510a74a70.md.png
46a4262244f93fc37d6fa2a79d360d0d.md.png
fa864397c2d18493efab26801a9042c1.md.png
028ffbaeb263920046b925ce78354cba.md.png
c8506e932eb7fbedbd9c391689f39afb.md.png

{ Media Fire} Download  Link 

0 0 vote
Article Rating
Subscribe
Notify of
guest
4 Comments
Oldest
Newest Most Voted
Inline Feedbacks
View all comments
Tariq 806
Tariq 806
1 year ago

Dear Sir plz upload Emraan Hashmi any movie song

KingPin
KingPin
1 year ago

LINKS are Dead …please reupload

Katper
Katper
1 year ago

files deleted, plz reupload