Kabhi Khushi Kabhie Gham (2001) Blu-Ray 1080P Special Edition RAPID_EYE_MOVIES DTS-HDMA 5.1 AVC – | REMUX | 27.6 GB | DB9 |


Media Info:

4 Disk – 11 Sections with Hindi/German DTS-HD duration 3:29:50

output

11 section combine into 1 mkv file ( only Hindi DTS, German DTS Exclude ) nothing ripped – pure REMUX

total size : 27.6 GB

Format
Format version : Version 2
File size : 27.7 GiB
Duration : 3 h 29 min
Overall bit rate mode : Variable
Overall bit rate : 18.9 Mb/s
Encoded date : UTC 2020-03-13 06:23:00
Writing application : DVDFab 11.0.6.5
Writing library : libebml v1.3.4 + libmatroska v1.4.5

Video
ID : 1
Format : AVC
Format/Info : Advanced Video Codec
Format profile : [email protected]
Format settings : CABAC / 4 Ref Frames
Format settings, CABAC : Yes
Format settings, Reference frames : 4 frames
Codec ID : V_MPEG4/ISO/AVC
Duration : 3 h 29 min
Bit rate mode : Variable
Bit rate : 16.5 Mb/s
Maximum bit rate : 35.0 Mb/s
Width : 1 920 pixels
Height : 1 080 pixels
Display aspect ratio : 16:9
Frame rate mode : Constant
Frame rate : 24.000 FPS
Standard : NTSC
Color space : YUV
Chroma subsampling : 4:2:0
Bit depth : 8 bits
Scan type : Progressive
Bits/(Pixel*Frame) : 0.332
Stream size : 24.2 GiB (88%)
Default : Yes
Forced : No
Color range : Limited
Color primaries : BT.709
Transfer characteristics : BT.709
Matrix coefficients : BT.709

Audio
ID : 2
Format : DTS XLL
Format/Info : Digital Theater Systems
Commercial name : DTS-HD Master Audio
Codec ID : A_DTS
Duration : 3 h 29 min
Bit rate mode : Variable
Bit rate : 2 342 kb/s
Channel(s) : 6 channels
Channel layout : C L R Ls Rs LFE
Sampling rate : 48.0 kHz
Frame rate : 93.750 FPS (512 SPF)
Bit depth : 16 bits
Compression mode : Lossless
Stream size : 3.43 GiB (12%)
Language : Hindi
Default : Yes
Forced : No


Screenshots:

https://drive.klop.me/file/54c6a89e40

Other Platform Download 

https://7-up.net/qfkr32s8iqm0.html

0 0 vote
Article Rating
Subscribe
Notify of
guest
0 Comments
Inline Feedbacks
View all comments