Kaali S01 2018 Zee5 1080p Web Series Hindi

Kaali 2 Cast (ZEE5), Actors, Roles, Salary & More - Serial Cast

Format : MPEG-4
Format profile : Base Media
Codec ID : isom (isom/iso2/avc1/mp41)
File size : 497 MiB
Duration : 34 min 8 s
Overall bit rate mode : Variable
Overall bit rate : 2 037 kb/s
Writing application : Lavf56.30.100

Video
ID : 1
Format : AVC
Format/Info : Advanced Video Codec
Format profile : [email protected]
Format settings : CABAC / 4 Ref Frames
Format settings, CABAC : Yes
Format settings, Reference frames : 4 frames
Codec ID : avc1
Codec ID/Info : Advanced Video Coding
Duration : 34 min 8 s
Bit rate mode : Variable
Bit rate : 1 842 kb/s
Maximum bit rate : 2 700 kb/s
Width : 1 920 pixels
Height : 1 080 pixels
Display aspect ratio : 16:9
Frame rate mode : Constant
Frame rate : 25.000 FPS
Color space : YUV
Chroma subsampling : 4:2:0
Bit depth : 8 bits
Scan type : Progressive
Bits/(Pixel*Frame) : 0.036
Stream size : 450 MiB (90%)
Codec configuration box : avcC

Audio
ID : 2
Format : AAC LC
Format/Info : Advanced Audio Codec Low Complexity
Codec ID : mp4a-40-2
Duration : 34 min 8 s
Bit rate mode : Variable
Bit rate : 192 kb/s
Channel(s) : 2 channels
Channel layout : L R
Sampling rate : 48.0 kHz
Frame rate : 46.875 FPS (1024 SPF)
Compression mode : Lossy
Stream size : 46.2 MiB (9%)
Default : Yes


vlcsnap-2020-06-10-01h05m10s517vlcsnap-2020-06-10-01h04m16s679vlcsnap-2020-06-10-01h04m23s711vlcsnap-2020-06-10-01h04m34s062vlcsnap-2020-06-10-01h04m51s260vlcsnap-2020-06-10-01h05m19s667vlcsnap-2020-06-10-01h04m58s828
Gdrive Multiple Links+Download

Ep 1-https://bit.ly/2Al7R7y

Ep 2-https://bit.ly/2AnUH9L

Ep 3-https://bit.ly/3faQchy

Ep 4-https://bit.ly/3cOxquZ

Ep 5-https://bit.ly/2YjyRw5

Ep 6-https://bit.ly/2Uu2pGo

Ep 7-https://bit.ly/2ApsNdF

Ep 8-https://bit.ly/3cN57Nh

Torrent File Link(Seeding Until 72Hrs) (Use Bit Torrent Client)
https://bit.ly/37jrKrI

0 0 vote
Article Rating
Subscribe
Notify of
guest
0 Comments
Inline Feedbacks
View all comments