K.G.F CHAPTER 1 (2018) (MUSIC VIDEO ALBUM) 1080p WEB-DL x264 DDP 5.1 24X

Media info
General
Format                      : Matroska
Format version              : Version 4
File size                  : 1.22 GB
Overall bit rate            : 6 550 kb/s
Encoded date                : UTC 2019-02-18 21:04:04
Writing application        : mkvmerge v31.0.0 (‘Dolores In A Shoestand’) 64-bit
Writing library            : libebml v1.3.6 + libmatroska v1.4.9

Video
ID                          : 1
Format                      : AVC
Format/Info                : Advanced Video Codec
Format profile              : [email protected]
Format settings            : CABAC / 4 Ref Frames
Format settings, CABAC      : Yes
Format settings, ReFrames  : 4 frames
Codec ID                    : V_MPEG4/ISO/AVC
Bit rate                    : 5 908 kb/s
Width                      : 1 920 pixels
Height                      : 816 pixels
Display aspect ratio        : 2.35:1
Frame rate mode            : Constant
Frame rate                  : 25.000 FPS
Color space                : YUV
Chroma subsampling          : 4:2:0
Bit depth                  : 8 bits
Scan type                  : Progressive
Bits/(Pixel*Frame)          : 0.151
Stream size                : 50.2 MiB (90%)
Title                      : 24x
Default                    : Yes
Forced                      : No
Color range                : Limited
Color primaries            : BT.709
Transfer characteristics    : BT.709
Matrix coefficients        : BT.709

Audio
ID                          : 2
Format                      : E-AC-3
Format/Info                : Enhanced AC-3
Commercial name            : Dolby Digital Plus
Codec ID                    : A_EAC3
Bit rate mode              : Constant
Bit rate                    : 640 kb/s
Channel(s)                  : 6 channels
Channel layout              : L R C LFE Ls Rs
Sampling rate              : 48.0 kHz
Frame rate                  : 31.250 FPS (1536 SPF)
Compression mode            : Lossy
Delay relative to video    : 8 ms
Stream size                : 5.43 MiB (10%)
Title                      : 24x
Language                    : Hindi
Service kind                : Complete Main
Default                    : No
Forced                      : No

Text
ID                          : 3
Format                      : UTF-8
Codec ID                    : S_TEXT/UTF8
Codec ID/Info              : UTF-8 Plain Text
Bit rate                    : 73 b/s
Count of elements          : 9
Stream size                : 374 Bytes (0%)
Title                      : 24x
Language                    : English
Default                    : No
Forced                      : No

1.Salaam Rocky Bhai [24x].mkv – 230.2 MB

2.Gali Gali [24x].mkv – 219.1 MB

3.Sultan 1 [24x].mkv – 345.6 MB

4.Sab Ke Sapnon Ki [24x].mkv – 55.6 MB

5.Sultan 2 [24x].mkv – 72.4 MB

6.Sultan 3 [24x].mkv – 60.1 MB

7-Sultan End Roll [24x].mkv – 272.1 MB

0 0 vote
Article Rating
Subscribe
Notify of
guest
6 Comments
Oldest
Newest Most Voted
Inline Feedbacks
View all comments
afatb
afatb
1 year ago

Link not working

afatb
afatb
Reply to  SaturnWeb
1 year ago

tnx

fsociety
fsociety
1 year ago

Thank you, Sir

Tariq 806
Tariq 806
1 year ago

K.G.F CHAPTER 1 (2018) (MUSIC VIDEO ALBUM) 1080p WEB-DL x264 DDP 5.1

oh no sir ???? plz upload Untouched – BD50 AVC DTS-HDMA HD m2ts DTS song.