Jurm (2005) Hindi 1080p WebHD AVC {Music Video} ESuBS By-DusIcTv

xxxxxxxxxxxxxxxxxxxxxxxxxxxxxxxxxxxxxxxxxxxxxxxxxxxxxxxxxxxxxxx
Jurm (2005) Hindi 1080p WebHD AVC {Music Video} ESuBS By-DusIcTv
xxxxxxxxxxxxxxxxxxxxxxxxxxxxxxxxxxxxxxxxxxxxxxxxxxxxxxxxxxxxxxx
Media info
General
Format : Matroska
Format version : Version 4
File size : 2.50 GB
Overall bit rate : 12.1 Mb/s
Encoded date : UTC 2019-08-04 17:02:35
Writing application : mkvmerge v35.0.0 (‘All The Love In The World’) 64-bit
Writing library : libebml v1.3.9 + libmatroska v1.5.2
Video
ID : 1
Format : AVC
Format/Info : Advanced Video Codec
Format profile : [email protected]
Format settings : CABAC / 4 Ref Frames
Format settings, CABAC : Yes
Format settings, Reference frames : 4 frames
Codec ID : V_MPEG4/ISO/AVC
Bit rate : 11.9 Mb/s
Width : 1 920 pixels
Height : 816 pixels
Display aspect ratio : 2.35:1
Frame rate mode : Constant
Frame rate : 25.000 FPS
Color space : YUV
Chroma subsampling : 4:2:0
Bit depth : 8 bits
Scan type : Progressive
Bits/(Pixel*Frame) : 0.304
Stream size : 429 MiB (98%)
Title : DusIcTv
Default : Yes
Forced : No

Audio
ID : 2
Format : AAC LC
Format/Info : Advanced Audio Codec Low Complexity
Codec ID : A_AAC-2
Bit rate : 192 kb/s
Channel(s) : 2 channels
Channel layout : L R
Sampling rate : 48.0 kHz
Frame rate : 46.875 FPS (1024 SPF)
Compression mode : Lossy
Delay relative to video : 8 ms
Stream size : 6.92 MiB (2%)
Title : DusIcTv
Default : Yes
Forced : No

G- Drive Download

 01-Nazrein Teri Nazrein [By-DusIcTv].mkv – 435.6 MB


02-Meri Chahato Ka Samudar [By-DusIcTv].mkv – 541.9 MB


03-Aksar Ye Hota Hai Pyar Mein [By-DusIcTv].mkv – 442.1 MB


04-Meri Chahato Ka Samudar (Sad) (I) [By-DusIcTv].mkv – 121.8 MB


05-O Sanam O Sanam [By-DusIcTv].mkv – 401.2 MB


06-Meri Chahato Ka Samudar (Sad) (II) [By-DusIcTv].mkv – 117.6 MB


07-Rabba Rabba [By-DusIcTv].mkv – 509.3 MB

0 0 vote
Article Rating
Subscribe
Notify of
guest
2 Comments
Oldest
Newest Most Voted
Inline Feedbacks
View all comments
amirsohail
1 year ago

Bollywood movie veerana 1988 1080p karo upload