Judwaa 2 (2017) (MUSIC VIDEO ALBUM) Untouched – BD50 DOLBY ATMOS TrueHD 7.1 ESuBS

Video
ID : 4113 (0x1011)
Menu ID : 1 (0x1)
Format : AVC
Format/Info : Advanced Video Codec
Format profile : [email protected]
Format settings : 4 Ref Frames
Format settings, CABAC : No
Format settings, RefFrames : 4 frames
Codec ID : 27
Duration : 3 min 42 s
Bit rate mode : Variable
Bit rate : 41.1 Mb/s
Maximum bit rate : 40.0 Mb/s
Width : 1 920 pixels
Height : 1 080 pixels
Display aspect ratio : 16:9
Frame rate : 24.000 FPS
Color space : YUV
Chroma subsampling : 4:2:0
Bit depth : 8 bits
Scan type : Progressive
Bits/(Pixel*Frame) : 0.826
Stream size : 1.06 GiB (93%)

Audio #1
ID : 4352 (0x1100)
Menu ID : 1 (0x1)
Format : AC-3
Format/Info : Audio Coding 3
Commercial name : Dolby Digital
Muxing mode : Stream extension
Codec ID : 131
Duration : 3 min 41 s
Bit rate mode : Variable
Bit rate : 640 kb/s
Maximum bit rate : 11.0 Mb/s
Channel(s) : 8 channels
Channel layout : L R C LFE Ls Rs Lb Rb
Sampling rate : 96.0 kHz / 48.0 kHz
Frame rate : 31.250 FPS (1536 SPF)
Bit depth : 16 bits
Compression mode : Lossy
Delay relative to video : 14 ms
Stream size : 16.9 MiB (1%)
Language : Hindi
Service kind : Complete Main

Audio #2
ID : 4353 (0x1101)
Menu ID : 1 (0x1)
Format : AC-3
Format/Info : Audio Coding 3
Commercial name : Dolby Digital
Codec ID : 129
Duration : 3 min 42 s
Bit rate mode : Constant
Bit rate : 640 kb/s
Channel(s) : 6 channels
Channel layout : L R C LFE Ls Rs
Sampling rate : 48.0 kHz
Frame rate : 31.250 FPS (1536 SPF)
Bit depth : 16 bits
Compression mode : Lossy
Delay relative to video : 14 ms
Stream size : 16.9 MiB (1%)
Language : Hindi
Service kind : Complete Main


d059fe82a22429a0655cd16c65919cc1.jpg
4482a5cefa9a62cd552dd275602157fd.jpg
327a23037e38c1cc161e8c3e26add3cc.jpg
5fd2aa373af97ec46c041c8888bd058c.jpg
2eb70ec1546bb228539fdfb338612f0c.jpg
62b0375591f8e71cdacc43d0aad529b3.jpg
3962b60130718d36c6b3483be6e67396.jpg

01-Suno Ganpati Bappa Morya [TeaM DuS].m2ts – 1.3 GB

2-Lift Teri Bandh Hai [TeaM DuS].m2ts – 1.1 GB

3-Aa Toh Sahi [TeaM DuS].m2ts – 1.2 GB

4-Chalti Hai Kiya 9 Se 12 [TeaM DuS].m2ts – 1.4 GB

0 0 vote
Article Rating
Subscribe
Notify of
guest
2 Comments
Oldest
Newest Most Voted
Inline Feedbacks
View all comments
Tariq 806
Tariq 806
1 year ago

I have this song on my laptop. Dear Sir, please upload another song

Decimo
Decimo
5 months ago

4-Chalti Hai Kiya 9 Se 12 [TeaM DuS].m2ts – 1.4 GB Can you please Re-upload , This links dead.