Judaai (1997) Hindi 1080p Untouched Webhd AVC {Music Video} ESuBS By-DusIcTv

Judaai.(1997).Hindi.1080p.Untouched.Webhd.AVC.{Music.Video}.ESuBS.By-DusIcTv

:details:

Format                                   : Matroska
Format version                           : Version 4
File size                                : 2.93 GB
Overall bit rate                         : 12.0 Mb/s
Writing application      : mkvmerge v26.0.0 (‘In The Game’) 64-bit
Writing library   : libebml v1.3.6 + libmatroska v1.4.9

Video
ID                                       : 1
Format                                   : AVC
Format/Info                              : Advanced Video Codec
Format profile                           : [email protected]
Format settings                          : CABAC / 4 Ref Frames
Format settings, CABAC                   : Yes
Format settings, Reference frames        : 4 frames
Codec ID                                 : V_MPEG4/ISO/AVC
Bit rate                                 : 11.8 Mb/s
Width                                    : 1 920 pixels
Height                                   : 816 pixels
Display aspect ratio                     : 2.35:1
Frame rate mode                          : Constant
Frame rate                               : 25.000 FPS
Color space                              : YUV
Chroma subsampling                       : 4:2:0
Bit depth                                : 8 bits
Scan type                                : Progressive
Bits/(Pixel*Frame)                       : 0.301
Stream size                              : 357 MiB (98%)
Default                                  : Yes
Forced                                   : No

Audio
ID                                       : 2
Format                                   : AAC LC
Format/Info                              : Advanced Audio Codec
Codec ID                                 : A_AAC-2
Bit rate                                 : 192 kb/s
Channel(s)                               : 2 channels
Channel layout                           : L R
Sampling rate                            : 48.0 kHz
Frame rate                               : 46.875 FPS (1024 SPF)
Compression mode                         : Lossy
Delay relative to video                  : 13 ms
Stream size                              : 5.82 MiB (2%)
Default                                  : Yes
Forced                                   : No

:screens:









:download2:
01-Mujhe Pyaar Hua [By-DusIcTv].mkv   362.95 MB

https://thefileslocker.com/81wwt1nnitqr.html

02-Judaai Judaai [By-DusIcTv].mkv   362.60 MB

https://thefileslocker.com/rd487rma4b0x.html

03-Main Tujhse Aise Milun [By-DusIcTv].mkv   420.72 MB

https://thefileslocker.com/mqkvg69v5jdy.html

04-Meri Zindagi Ek Pyaas [By-DusIcTv].mkv   309.20 MB

https://thefileslocker.com/1b3pgo5oug0a.html

05-Pyaar Pyaar Karte Karte [By-DusIcTv].mkv   479.55 MB

https://thefileslocker.com/hz27j2r0df2i.html

06-Raat Ko Neend Aati Nahin [By-DusIcTv].mkv   429.73 MB

https://thefileslocker.com/dor7nnv321w2.html

07-Shaadi Karke Pas Gaya [By-DusIcTv].mkv   487.23 MB

https://thefileslocker.com/o4xh18ihk4em.html

08-Judaai Judaai (2nd) [By-DusIcTv].mkv   150.31 MB

https://thefileslocker.com/x3ftwcp2zd3n.html

https://thefileslocker.com/mjkpbba8wqgr.html
https://uptobox.com/lp4fxarc6e06
https://desiupload.to/f/bpsu1y-n51uycqsjv0hl

0 0 vote
Article Rating
Subscribe
Notify of
guest
0 Comments
Inline Feedbacks
View all comments