Johnny English (2003-2011) Duology 1080p BluRay x264 {Hindi DD 5.1 & DTS 5.1-Eng DTS 5.1} MSub By~Hammer~| G-Drive |

 

General
Format                                   : Matroska
Format version                           : Version 4
File size                                : 4.39 GiB
Duration                                 : 1 h 27 min
Overall bit rate                         : 7 180 kb/s
Movie name                               : Johnny English (2003) 1080p Bluray x264 {Dual Audio} {Hindi DD 5.1-Eng DTS 5.1} ESub By~Hammer~
Bit rate                                 : 5 000 kb/s
Width                                    : 1 920 pixels
Height                                   : 1 040 pixels
Display aspect ratio                     : 1.85:1
Frame rate mode                          : Constant
Frame rate                               : 23.976 (24000/1001) FPS
Title                                    : ~EncodeR~Hammer~
Language                                 : English
Default                                  : Yes
Forced                                   : No

Audio #1
Format                                   : AC-3
Format/Info                              : Audio Coding 3
Commercial name                          : Dolby Digital
Codec ID                                 : A_AC3
Duration                                 : 1 h 27 min
Bit rate mode                            : Constant
Bit rate                                 : 640 kb/s
Channel(s)                               : 6 channels
Channel layout                           : L R C LFE Ls Rs
Sampling rate                            : 48.0 kHz
Frame rate                               : 31.250 FPS (1536 SPF)
Compression mode                         : Lossy
Stream size                              : 401 MiB (9%)
Title                                    : Hindi Org DD 5.1 640 kbps By~Hammer~
Language                                 : Hindi
Default                                  : Yes
Forced                                   : No

Audio #2
Format                                   : DTS
Format/Info                              : Digital Theater Systems
Codec ID                                 : A_DTS
Duration                                 : 1 h 27 min
Bit rate mode                            : Constant
Bit rate                                 : 1 509 kb/s
Channel(s)                               : 6 channels
Channel layout                           : C L R Ls Rs LFE
Sampling rate                            : 48.0 kHz
Frame rate                               : 93.750 FPS (512 SPF)
Bit depth                                : 24 bits
Compression mode                         : Lossy
Stream size                              : 944 MiB (21%)
Title                                    : English DTS 5.1 1509 kbps By~Hammer~
Language                                 : English
Default                                  : No
Forced                                   : No

Text #1
Format                                   : PGS
Muxing mode                              : zlib
Codec ID                                 : S_HDMV/PGS
Codec ID/Info                            : Picture based subtitle format used on BDs/HD-DVDs
Duration                                 : 1 h 24 min
Bit rate                                 : 64.3 kb/s
Count of elements                        : 2420
Stream size                              : 38.8 MiB (1%)
Title                                    : English PGS
Language                                 : English
Default                                  : Yes
Forced                                   : No

Text #2
Format                                   : PGS
Muxing mode                              : zlib
Codec ID                                 : S_HDMV/PGS
Codec ID/Info                            : Picture based subtitle format used on BDs/HD-DVDs
Duration                                 : 1 h 24 min
Bit rate                                 : 43.2 kb/s
Count of elements                        : 2422
Stream size                              : 26.0 MiB (1%)
Title                                    : English PGS
Language                                 : English
Default                                  : No
Forced                                   : No

Johnny English (2003) 1080p Bluray x264 {Dual Audio} {Hindi DD 5.1-Eng DTS 5.1} ESub By~Hammer~

https://drive.klop.me/file/4752acb266

https://sharer.pw/file/WfKe-weHmGB

https://thefileslocker.com/ag5m1mgftrr6.html

Johnny English Reborn (2011) 1080p BluRay x264 {Dual Audio} {Hindi-Eng DTS 5.1} MSub By~Hammer~

https://sharer.pw/file/Zg226O2D7Fo

https://drive.klop.me/file/cda3809580

https://thefileslocker.com/v877223atkvp.html

 

0 0 vote
Article Rating
Subscribe
Notify of
guest
1 Comment
Oldest
Newest Most Voted
Inline Feedbacks
View all comments
Katper
Katper
1 year ago

can you please share Johnny English (2003) Hindi audio only in 5.1ch 640kbps