John Wick Chapter 3 Parabellum (2019) BluRay -1440p – UHD – Multi Audios [Hin Tam Tel Eng] – x265 – 3.5Gb – Pahe – Desishare

John Wick: Chapter 3 - Parabellum 4K Blu-ray 2019: Amazon.co.uk ...

Movie Title :- John Wick Chapter 3 Parabellum (2019)

Genre :- Action/Crime/Thriller

Quality :- BluRay

Language :- Hindi Tamil Telugu English

File Size :- 3.5Gb

Video
ID : 1
Format : HEVC
Format/Info : High Efficiency Video Coding
Format profile : Main [email protected]@High
HDR format : SMPTE ST 2086, HDR10 compatible
Codec ID : V_MPEGH/ISO/HEVC
Duration : 2 h 10 min
Bit rate : 2 813 kb/s
Width : 2 560 pixels
Height : 1 066 pixels
Display aspect ratio : 2.40:1
Frame rate mode : Constant
Frame rate : 23.976 (24000/1001) FPS
Color space : YUV
Chroma subsampling : 4:2:0
Bit depth : 10 bits
Bits/(Pixel*Frame) : 0.043
Stream size : 2.57 GiB (74%)
Title : Desishare.In
Default : Yes
Forced : No
Color range : Limited
Color primaries : BT.2020
Transfer characteristics : PQ
Matrix coefficients : BT.2020 non-constant
Mastering display color primaries : Display P3
Mastering display luminance : min: 0.0001 cd/m2, max: 1000 cd/m2
Maximum Content Light Level : 1000 cd/m2
Maximum Frame-Average Light Level : 358 cd/m2

Audio #1
ID : 3
Format : E-AC-3 JOC
Format/Info : Enhanced AC-3 with Joint Object Coding
Commercial name : Dolby Digital Plus with Dolby Atmos
Codec ID : A_EAC3
Duration : 2 h 10 min
Bit rate mode : Constant
Bit rate : 448 kb/s
Channel(s) : 6 channels
Channel layout : L R C LFE Ls Rs
Sampling rate : 48.0 kHz
Frame rate : 31.250 FPS (1536 SPF)
Compression mode : Lossy
Stream size : 419 MiB (12%)
Title : Desishare.In
Language : English
Service kind : Complete Main
Default : Yes
Forced : No
Complexity index : 16
Number of dynamic objects : 15
Bed channel count : 1 channel
Bed channel configuration : LFE

Audio #2
ID : 4
Format : MPEG Audio
Format version : Version 1
Format profile : Layer 3
Format settings : Joint stereo / MS Stereo
Codec ID : A_MPEG/L3
Codec ID/Hint : MP3
Duration : 2 h 10 min
Bit rate mode : Variable
Bit rate : 192 kb/s
Channel(s) : 2 channels
Sampling rate : 44.1 kHz
Frame rate : 38.281 FPS (1152 SPF)
Compression mode : Lossy
Stream size : 172 MiB (5%)
Title : Desishare.In
Writing library : LAME3.99r
Encoding settings : -m j -V 4 -q 3 -lowpass 18.6 –abr 192
Language : Telugu
Default : No
Forced : No

Audio #3
ID : 5
Format : MPEG Audio
Format version : Version 1
Format profile : Layer 3
Format settings : Joint stereo / MS Stereo
Codec ID : A_MPEG/L3
Codec ID/Hint : MP3
Duration : 2 h 10 min
Bit rate mode : Variable
Bit rate : 192 kb/s
Channel(s) : 2 channels
Sampling rate : 44.1 kHz
Frame rate : 38.281 FPS (1152 SPF)
Compression mode : Lossy
Stream size : 172 MiB (5%)
Title : Desishare.In
Writing library : LAME3.99r
Encoding settings : -m j -V 4 -q 3 -lowpass 18.6 –abr 192
Language : Tamil
Default : No
Forced : No

Audio #4
ID : 6
Format : MPEG Audio
Format version : Version 1
Format profile : Layer 3
Format settings : Joint stereo / MS Stereo
Codec ID : A_MPEG/L3
Codec ID/Hint : MP3
Duration : 2 h 10 min
Bit rate mode : Variable
Bit rate : 192 kb/s
Channel(s) : 2 channels
Sampling rate : 44.1 kHz
Frame rate : 38.281 FPS (1152 SPF)
Compression mode : Lossy
Stream size : 173 MiB (5%)
Title : Desishare.In
Writing library : LAME3.99r
Encoding settings : -m j -V 4 -q 3 -lowpass 18.6 –abr 192
Language : Hindi
Default : No
Forced : No

Text #1
ID : 2
Format : PGS
Muxing mode : zlib
Codec ID : S_HDMV/PGS
Codec ID/Info : Picture based subtitle format used on BDs/HD-DVDs
Duration : 1 h 59 min
Bit rate : 17.0 kb/s
Count of elements : 1370
Stream size : 14.6 MiB (0%)
Title : Desishare.In
Language : English
Default : Yes
Forced : No

Text #2
ID : 7
Format : UTF-8
Codec ID : S_TEXT/UTF8
Codec ID/Info : UTF-8 Plain Text
Duration : 1 h 59 min
Bit rate : 24 b/s
Count of elements : 691
Stream size : 21.4 KiB (0%)
Title : Desishare.In
Language : English
Default : No
Forced : No

2eb2d4a86c755e412952a03dd01574b8.jpg
f1f5614963a15ae8087e4362a55c5d6e.jpg
f17ce7f538dd3878af81db051c4398fd.jpg
435cf8dc1d4570586c835504d54bf6d3.jpg

1080p [Gdrive +Download] (3.5 Gb)

 

0 0 vote
Article Rating
Subscribe
Notify of
guest
0 Comments
Inline Feedbacks
View all comments