Jism (2003) Hindi 1080p WebHD AVC {Music Video} ESuBS By-DusIcTv

xxxxxxxxxxxxxxxxxxxxxxxxxxxxxxxxxxxxxxxxxxxxxxxxxxxxxxxxxxxxxxx
Jism (2003) Hindi 1080p WebHD AVC {Music Video} ESuBS By-DusIcTv
xxxxxxxxxxxxxxxxxxxxxxxxxxxxxxxxxxxxxxxxxxxxxxxxxxxxxxxxxxxxxxx
Media info
General
Format : Matroska
Format version : Version 4
File size : 325 MB
Overall bit rate : 2 200 kb/s
Encoded date : UTC 2019-08-16 13:12:02
Writing application : mkvmerge v35.0.0 (‘All The Love In The World’) 64-bit
Writing library : libebml v1.3.9 + libmatroska v1.5.2

Video
ID : 1
Format : AVC
Format/Info : Advanced Video Codec
Format profile : [email protected]
Format settings : CABAC / 4 Ref Frames
Format settings, CABAC : Yes
Format settings, Reference frames : 4 frames
Codec ID : V_MPEG4/ISO/AVC
Bit rate : 2 070 kb/s
Width : 1 920 pixels
Height : 816 pixels
Display aspect ratio : 2.35:1
Frame rate mode : Constant
Frame rate : 25.000 FPS
Color space : YUV
Chroma subsampling : 4:2:0
Bit depth : 8 bits
Scan type : Progressive
Bits/(Pixel*Frame) : 0.053
Stream size : 43.9 MiB (94%)
Language : Hindi
Default : Yes
Forced : No
Color range : Limited
Color primaries : BT.709
Transfer characteristics : BT.709
Matrix coefficients : BT.709

Audio
ID : 2
Format : AAC LC
Format/Info : Advanced Audio Codec Low Complexity
Codec ID : A_AAC-2
Bit rate : 128 kb/s
Channel(s) : 2 channels
Channel layout : L R
Sampling rate : 48.0 kHz
Frame rate : 46.875 FPS (1024 SPF)
Compression mode : Lossy
Stream size : 2.73 MiB (6%)
Language : Hindi
Default : Yes
Forced : No

G- Drive Download

01-Awarapan Banjarapan [By-DusIcTv].mkv – 46.7 MB

02-Chalo Tumko Lekar Chale [By-DusIcTv].mkv – 72.3 MB

03-Jaadu Hai Nasha Hai [By-DusIcTv].mkv – 70.7 MB

04-Shikayat Hai [By-DusIcTv].mkv – 74.1 MB

05-Awarapan Banjarapan (2nd) [By-DusIcTv].mkv – 61.6 MB

0 0 vote
Article Rating
Subscribe
Notify of
guest
0 Comments
Inline Feedbacks
View all comments