Jism-2 2012 { Video Songs } 1080p Bluray AVC DTS Audio 5.1 ESub

Format : Matroska
Format version : Version 4
File size : 1.05 GiB
Duration : 4 min 24 s
Overall bit rate mode : Variable
Overall bit rate : 34.2 Mb/s
Movie name : [DesiShare.org]
Encoded date : UTC 2019-07-08 12:23:20
Writing application : mkvmerge v29.0.0 (‘Like It Or Not’) 32-bit
Writing library : libebml v1.3.6 + libmatroska v1.4.9

Video
ID : 1
Format : AVC
Format/Info : Advanced Video Codec
Format profile : [email protected]
Format settings : CABAC / 4 Ref Frames
Format settings, CABAC : Yes
Format settings, ReFrames : 4 frames
Format settings, GOP : M=3, N=12
Codec ID : V_MPEG4/ISO/AVC
Duration : 4 min 23 s
Bit rate mode : Variable
Bit rate : 28.9 Mb/s
Maximum bit rate : 32.0 Mb/s
Width : 1 920 pixels
Height : 1 080 pixels
Display aspect ratio : 16:9
Frame rate mode : Constant
Frame rate : 24.000 FPS
Standard : NTSC
Color space : YUV
Chroma subsampling : 4:2:0
Bit depth : 8 bits
Scan type : Progressive
Bits/(Pixel*Frame) : 0.580
Stream size : 906 MiB (84%)
Title : [DesiShare.org]
Default : Yes
Forced : No
Color range : Limited
Color primaries : BT.709
Transfer characteristics : BT.709
Matrix coefficients : BT.709

Audio #1
ID : 2
Format : DTS XLL
Format/Info : Digital Theater Systems
Commercial name : DTS-HD Master Audio
Codec ID : A_DTS
Duration : 4 min 23 s
Bit rate mode : Variable
Bit rate : 5 013 kb/s
Channel(s) : 6 channels
Channel layout : C L R Ls Rs LFE
Sampling rate : 48.0 kHz
Frame rate : 93.750 FPS (512 SPF)
Bit depth : 24 bits
Compression mode : Lossless
Delay relative to video : -857 ms
Stream size : 157 MiB (15%)
Title : [DesiShare.org]
Default : Yes
Forced : No

Audio #2
ID : 3
Format : AC-3
Format/Info : Audio Coding 3
Commercial name : Dolby Digital
Codec ID : A_AC3
Duration : 4 min 23 s
Bit rate mode : Constant
Bit rate : 448 kb/s
Channel(s) : 6 channels
Channel layout : L R C LFE Ls Rs
Sampling rate : 48.0 kHz
Frame rate : 31.250 FPS (1536 SPF)
Bit depth : 16 bits
Compression mode : Lossy
Delay relative to video : -729 ms
Stream size : 14.1 MiB (1%)
Title : [DesiShare.org]
Service kind : Complete Main
Default : No
Forced : No

Text
ID : 4
Format : PGS
Muxing mode : zlib
Codec ID : S_HDMV/PGS
Codec ID/Info : Picture based subtitle format used on BDs/HD-DVDs
Duration : 3 min 36 s
Bit rate : 22.9 kb/s
Count of elements : 81
Stream size : 603 KiB (0%)
Title : [DesiShare.org]
Default : Yes
Forced : No

8705c77aad1e54b58f5b34fc7824fabf.png
61929f0ba87d1e3e735f1bdd0f068608.png
4b7451e11854df79b8fa866de3b14bbf.png
5c5677c6a196f625a8491c41f30f4a36.png
78b363c3efa6e81ad6d2c5541da1710f.png
699f361e0e428af37a14e921c490ed4b.png
5de5a9922c9317da93749110943cbe3f.png
d89e0967acd951bdd4bd148f68a37450.png
bd3e4919a85140d722d44e321064ba79.png

Abhi Abhi Toh Mile Ho – (Jism 2) {DesiShare.org}.mkv – 1.1 GB

Ishq Bhi Kiya Re Maula Romantic Version – (Jism 2) {DesiShare.org}.mkv – 250.9 MB

Maula – (Jism 2) {DesiShare.org}.mkv – 1.1 GB

Yeh Kasoor Mera Hai – (Jism 2) {DesiShare.org}.mkv – 1.3 GB

0 0 vote
Article Rating
Subscribe
Notify of
guest
1 Comment
Oldest
Newest Most Voted
Inline Feedbacks
View all comments
ChiragE52
1 year ago

Darta hoon song