Jeena Marna Tere Sang (1992) (MUSIC VIDEOS ALBUM) 1080p WebHD AVC DD 2.0 By-DusIcTv

Jeena Marna Tere Sang (1992) (MUSIC VIDEOS ALBUM) 1080p WebHD AVC DD 2.0 By-DusIcTv

xxxxxxxxxxxxxxxxxxxxxxxxxxxxxxxxxxxxxxxxxxxxxxxxxxxxxxxxxxxxxxxxxxxxxxxxxxxxxxxxxxxxxxxxxxxxxxxxxxx
Jeena Marna Tere Sang (1992) (MUSIC VIDEOS ALBUM) 1080p WebHD AVC DD 2.0 By-DusIcTv
xxxxxxxxxxxxxxxxxxxxxxxxxxxxxxxxxxxxxxxxxxxxxxxxxxxxxxxxxxxxxxxxxxxxxxxxxxxxxxxxxxxxxxxxxxxxxxxxxxx

:details:

General
Format : Matroska
Format version : Version 4
File size : 3.58 GB
Overall bit rate mode : Variable
Overall bit rate : 15.2 Mb/s
Writing application : mkvmerge v36.0.0 (‘Is That Jazz?’) 32-bit
Writing library : libebml v1.3.9 + libmatroska v1.5.2

Video
ID : 1
Format : AVC
Format/Info : Advanced Video Codec
Format profile : [email protected]
Format settings : CABAC / 4 Ref Frames
Format settings, CABAC : Yes
Format settings, Reference frames : 4 frames
Codec ID : V_MPEG4/ISO/AVC
Bit rate mode : Variable
Bit rate : 15.0 Mb/s
Width : 1 920 pixels
Height : 816 pixels
Display aspect ratio : 2.35:1
Frame rate mode : Constant
Frame rate : 25.000 FPS
Color space : YUV
Chroma subsampling : 4:2:0
Bit depth : 8 bits
Scan type : Progressive
Bits/(Pixel*Frame) : 0.383
Stream size : 478 MiB (99%)
Default : Yes
Forced : No
Color range : Limited
Color primaries : BT.709
Transfer characteristics : BT.709
Matrix coefficients : BT.709

Audio
ID : 2
Format : E-AC-3
Format/Info : Enhanced AC-3
Commercial name : Dolby Digital Plus
Codec ID : A_EAC3
Bit rate mode : Constant
Bit rate : 224 kb/s
Channel(s) : 2 channels
Channel layout : L R
Sampling rate : 48.0 kHz
Frame rate : 31.250 FPS (1536 SPF)
Compression mode : Lossy
Stream size : 7.14 MiB (1%)
Language : English
Service kind : Complete Main
Default : Yes
Forced : No

Text
ID : 3
Format : UTF-8
Codec ID : S_TEXT/UTF8
Codec ID/Info : UTF-8 Plain Text
Bit rate : 48 b/s
Count of elements : 39
Stream size : 1.42 KiB (0%)
Default : Yes
Forced : No

:screenshots:

:download2:
01-Kala Doriya [By-DusIcTv].mkv   484.76 MB

https://thefileslocker.com/p0fcnqxljqau.html

02-Kal Maine Khuli Aankh Se [By-DusIcTv].mkv   577.13 MB

https://thefileslocker.com/ij13t0ysg9xj.html

03-Chaha Hai Tumhein Chahenge [By-DusIcTv].mkv   597.39 MB

https://thefileslocker.com/rrinyqnx8s86.html

04-Dil Ek Mandir Pyar Hai Pooja [By-DusIcTv].mkv   288.94 MB

https://thefileslocker.com/c38cgqij4w3f.html

05-Aaj Dil Ki Baatein [By-DusIcTv].mkv   477.81 MB

https://thefileslocker.com/jkqdgtyoj5vc.html

06-Dil Ek Mandir Pyar Hai Pooja (2nd) [By-DusIcTv].mkv   157.25 MB

https://thefileslocker.com/4ata33gsss57.html

07-Tune Zamane Ye Kya Kar Diya [By-DusIcTv].mkv   541.37 MB

https://thefileslocker.com/rzb6bzzs8h7z.html

08-Jo Sache Premi Hain [By-DusIcTv].mkv   548.47 MB

https://thefileslocker.com/uju89sx3o749.html

https://thefileslocker.com/08km26p1gqkh.html
https://desiupload.to/f/cg6h7w-da08bcbcymqgz

0 0 vote
Article Rating
Subscribe
Notify of
guest
0 Comments
Inline Feedbacks
View all comments