Jannat (2008) Bollywood Movie All Video Music Album 1080p WEB-DL H264 DDP 5.1 By ~MaLiK ZEE~

~♥ BollyWooD MoviE ♥~
(Jannat 2008)

Specs ♪♫
General
Format                      : Matroska
Format version              : Version 4 / Version 2
File size                   : 1.75 GB
Overall bit rate mode       : Variable
Overall bit rate            : 11.1 Mb/s
Encoded date                : UTC 2018-10-03 07:17:49
Writing application         : mkvmerge v25.0.0 (‘Prog Noir’) 64-bit
Writing library             : libebml v1.3.6 + libmatroska v1.4.9

♪ Video ♪
ID                          : 1
Format                      : AVC
Format/Info                 : Advanced Video Codec
Format profile              : [email protected]
Format settings             : CABAC / 4 Ref Frames
Format settings, CABAC      : Yes
Format settings, ReFrames   : 4 frames
Codec ID                    : V_MPEG4/ISO/AVC
Bit rate mode               : Variable
Bit rate                    : 10.4 Mb/s
Maximum bit rate            : 15.0 Mb/s
Width                       : 1 920 pixels
Height                      : 816 pixels
Display aspect ratio        : 2.35:1
Original display aspect rat : 2.35:1
Frame rate mode             : Constant
Frame rate                  : 24.000 FPS
Color space                 : YUV
Chroma subsampling          : 4:2:0
Bit depth                   : 8 bits
Scan type                   : Progressive
Bits/(Pixel*Frame)          : 0.278
Stream size                 : 382 MiB (94%)
Language                    : English
Default                     : Yes
Forced                      : No
Color range                 : Limited
Color primaries             : BT.709
Transfer characteristics    : BT.709
Matrix coefficients         : BT.709

♫ Audio ♫
ID                          : 2
Format                      : E-AC-3
Format/Info                 : Enhanced Audio Coding 3
Codec ID                    : A_EAC3
Bit rate mode               : Constant
Bit rate                    : 640 kb/s
Channel(s)                  : 6 channels
Channel positions           : Front: L C R, Side: L R, LFE
Sampling rate               : 48.0 kHz
Frame rate                  : 187.500 FPS (256 SPF)
Compression mode            : Lossy
Delay relative to video     : -112 ms
Stream size                 : 23.4 MiB (6%)
Title                       : By ~MaLiK ZEE~
Language                    : Hindi
Service kind                : Complete Main
Default                     : Yes
Forced                      : No

English Subtitles : No
Chapters : No

 

Ripped By ~MaLiK ZEE~
0 0 vote
Article Rating
Subscribe
Notify of
guest
1 Comment
Oldest
Newest Most Voted
Inline Feedbacks
View all comments
Zahid Hasan Farid
Zahid Hasan Farid
2 months ago

Download link not working