Jab We Met (2007) (MUSIC VIDEOS ALBUM) 1080p Blu-Ray Untouched BD50 DTS-HDMA 5.1 By-DusIcTv

General
ID : 1 (0x1)
Format : BDAV
Format/Info : Blu-ray Video
File size : 7.62 GB
Overall bit rate mode : Variable
Overall bit rate : 40.8 Mb/s
Maximum Overall bit rate : 35.5 Mb/s

Video
ID : 4113 (0x1011)
Menu ID : 1 (0x1)
Format : AVC
Format/Info : Advanced Video Codec
Format profile : [email protected]
Format settings : CABAC / 4 Ref Frames
Format settings, CABAC : Yes
Format settings, Reference frames : 4 frames
Codec ID : 27
Bit rate mode : Variable
Maximum bit rate : 40.0 Mb/s
Width : 1 920 pixels
Height : 1 080 pixels
Display aspect ratio : 16:9
Frame rate : 24.000 FPS
Standard : NTSC
Color space : YUV
Chroma subsampling : 4:2:0
Bit depth : 8 bits
Scan type : Progressive
Color range : Limited
Color primaries : BT.709
Transfer characteristics : BT.709
Matrix coefficients : BT.709

Audio #1
ID : 4352 (0x1100)
Menu ID : 1 (0x1)
Format : DTS XLL
Format/Info : Digital Theater Systems
Commercial name : DTS-HD Master Audio
Muxing mode : Stream extension
Codec ID : 134
Bit rate mode : Variable
Channel(s) : 6 channels
Channel layout : C L R Ls Rs LFE
Sampling rate : 48.0 kHz
Frame rate : 93.750 FPS (512 SPF)
Bit depth : 24 bits
Compression mode : Lossless
Delay relative to video : -72 ms

Audio #2
ID : 4353 (0x1101)
Menu ID : 1 (0x1)
Format : AC-3
Format/Info : Audio Coding 3
Commercial name : Dolby Digital
Codec ID : 129
Bit rate mode : Constant
Bit rate : 640 kb/s
Channel(s) : 6 channels
Channel layout : L R C LFE Ls Rs
Sampling rate : 48.0 kHz
Frame rate : 31.250 FPS (1536 SPF)
Compression mode : Lossy
Delay relative to video : -83 ms
Stream size : 21.6 MiB (2%)
Service kind : Complete Main

Audio #3
ID : 4354 (0x1102)
Menu ID : 1 (0x1)
Format : AC-3
Format/Info : Audio Coding 3
Commercial name : Dolby Digital
Codec ID : 129
Bit rate mode : Constant
Bit rate : 224 kb/s
Channel(s) : 2 channels
Channel layout : L R
Sampling rate : 48.0 kHz
Frame rate : 31.250 FPS (1536 SPF)
Compression mode : Lossy
Delay relative to video : -83 ms
Stream size : 7.55 MiB (1%)
Service kind : Complete Main

Text
ID : 4608 (0x1200)
Menu ID : 1 (0x1)
Format : PGS
Codec ID : 144
Delay relative to video : 792 ms

Zip Download

01-Aao Milo Chalo [By-DusIcTv].m2ts – 1.1 GB

02-Nagada Nagada [By-DusIcTv].m2ts – 1.2 GB

03-Ye Ishq Hai [By-DusIcTv].m2ts – 1.4 GB

04-Tum Se Hi [By-DusIcTv].m2ts – 1.3 GB

05-Aaoge Jab Tum [By-DusIcTv].m2ts – 1.3 GB

06-Tum Se Hi (Music) [By-DusIcTv].m2ts – 183.0 MB

07-Mauja Hi Mauja (Remix End Roll) [By-DusIcTv].m2ts – 1.2 GB

0 0 vote
Article Rating
Subscribe
Notify of
guest
3 Comments
Oldest
Newest Most Voted
Inline Feedbacks
View all comments
lethal111
lethal111
1 year ago

A PERSONAL REQUEST TO YOU, MY DEAR BRO , plz post, bit earlier

mera naam joker 1970 bd50 untouched bluray hindi movie

PLEASEEEEEEE…..

lethal111
lethal111
1 year ago

its ok bro

do you have available Golmaal 1979 bd50 untouched bluray hindi movie