Jaane Tu…Ya.Jaane Na (2006) (MUSIC VIDEOS ALBUM) 1080p Blu-Ray Untouched BD50 DTS-HDMA 5.1 By-DusIcTv

General
ID : 1 (0x1)
Format : BDAV
Format/Info : Blu-ray Video
File size : 3.68 GB
Overall bit rate mode : Variable
Overall bit rate : 33.7 Mb/s
Maximum Overall bit rate : 35.5 Mb/s

Video
ID : 4113 (0x1011)
Menu ID : 1 (0x1)
Format : AVC
Format/Info : Advanced Video Codec
Format profile : [email protected]
Format settings : CABAC / 4 Ref Frames
Format settings, CABAC : Yes
Format settings, Reference frames : 4 frames
Codec ID : 27
Bit rate mode : Constant
Nominal bit rate : 28.0 Mb/s
Width : 1 920 pixels
Height : 1 080 pixels
Display aspect ratio : 16:9
Frame rate : 24.000 FPS
Standard : NTSC
Color space : YUV
Chroma subsampling : 4:2:0
Bit depth : 8 bits
Scan type : Progressive
Bits/(Pixel*Frame) : 0.563
Color range : Limited
Color primaries : BT.709
Transfer characteristics : BT.709
Matrix coefficients : BT.709

Audio #1
ID : 4352 (0x1100)
Menu ID : 1 (0x1)
Format : DTS XLL
Format/Info : Digital Theater Systems
Commercial name : DTS-HD Master Audio
Muxing mode : Stream extension
Codec ID : 134
Bit rate mode : Variable
Channel(s) : 6 channels
Channel layout : C L R Ls Rs LFE
Sampling rate : 48.0 kHz
Frame rate : 93.750 FPS (512 SPF)
Bit depth : 16 bits
Compression mode : Lossless
Delay relative to video : -37 ms
Language : Hindi

Audio #2
ID : 4353 (0x1101)
Menu ID : 1 (0x1)
Format : AC-3
Format/Info : Audio Coding 3
Commercial name : Dolby Digital
Codec ID : 129
Bit rate mode : Constant
Bit rate : 640 kb/s
Channel(s) : 6 channels
Channel layout : L R C LFE Ls Rs
Sampling rate : 48.0 kHz
Frame rate : 31.250 FPS (1536 SPF)
Compression mode : Lossy
Delay relative to video : -26 ms
Stream size : 19.8 MiB (2%)
Language : Hindi
Service kind : Complete Main

Audio #3
ID : 4354 (0x1102)
Menu ID : 1 (0x1)
Format : AC-3
Format/Info : Audio Coding 3
Commercial name : Dolby Digital
Codec ID : 129
Bit rate mode : Constant
Bit rate : 640 kb/s
Channel(s) : 2 channels
Channel layout : L R
Sampling rate : 48.0 kHz
Frame rate : 31.250 FPS (1536 SPF)
Compression mode : Lossy
Delay relative to video : -26 ms
Stream size : 19.8 MiB (2%)
Language : Hindi
Service kind : Complete Main

Text
ID : 4608 (0x1200)
Menu ID : 1 (0x1)
Format : PGS
Codec ID : 144
Delay relative to video : 4 s 83 ms
Language : English

Zip Download

01-Kabhi Kabhi Aditi Zindagi [By-DusIcTv].m2ts – 882.9 MB

02-Pappu Can’t Dance [By-DusIcTv].m2ts – 1.1 GB

03-Nazrein Milaana Nazrein Churaana [By-DusIcTv].m2ts – 1.0 GB

04-Kahin To Hogi Ho [By-DusIcTv].m2ts – 477.8 MB

05-Pappu Can’t Dance (Remix End Roll) [By-DusIcTv].m2ts – 268.0 MB

0 0 vote
Article Rating
Subscribe
Notify of
guest
1 Comment
Oldest
Newest Most Voted
Inline Feedbacks
View all comments
bollyhero
bollyhero
11 months ago

Can someone please re-upload 05-Pappu Can’t Dance (Remix End Roll) [By-DusIcTv].m2ts – 268.0 MB – file has a broken link. Thanks!